<?xml version="1.0" standalone="no"?>
<!DOCTYPE svg PUBLIC "-//W3C//DTD SVG 1.1//EN" "http://www.w3.org/Graphics/SVG/1.1/DTD/svg11.dtd" >
<svg xmlns="http://www.w3.org/2000/svg" xmlns:xlink="http://www.w3.org/1999/xlink" version="1.1">
<metadata>
Created by FontForge 20191125 at Fri Feb  7 01:54:07 2014
 By convertio
Copyright \(c\) 2011 by Fabio Duarte Martins. All rights reserved.
</metadata>
<defs>
<font id="Catorze27Style1-Book" horiz-adv-x="400" >
  <font-face 
    font-family="Catorze27 Style 1 Book"
    font-weight="350"
    font-stretch="normal"
    units-per-em="1000"
    panose-1="0 0 0 0 0 0 0 0 0 0"
    ascent="929"
    descent="-71"
    x-height="700"
    cap-height="800"
    bbox="-46 -250 996 1025"
    underline-thickness="50"
    underline-position="-100"
    unicode-range="U+0008-222B"
  />
<missing-glyph horiz-adv-x="500" 
d="M450 750v-750h-400v750h400zM100 700v-650h300v650h-300z" />
    <glyph glyph-name=".notdef" horiz-adv-x="500" 
d="M450 750v-750h-400v750h400zM100 700v-650h300v650h-300z" />
    <glyph glyph-name="NULL" horiz-adv-x="0" 
 />
    <glyph glyph-name="NULL" horiz-adv-x="0" 
 />
    <glyph glyph-name="NULL" horiz-adv-x="0" 
 />
    <glyph glyph-name="CR.001" horiz-adv-x="333" 
 />
    <glyph glyph-name="CR" unicode="&#x9;" horiz-adv-x="250" 
 />
    <glyph glyph-name="CR" unicode="&#xd;" horiz-adv-x="250" 
 />
    <glyph glyph-name="space" unicode=" " horiz-adv-x="250" 
 />
    <glyph glyph-name="exclam" unicode="!" horiz-adv-x="200" 
d="M71 126c0 39 58 39 58 0c0 -37 -58 -37 -58 0zM75 464v236h50v-236l-7 -235h-36c-5 138 -7 216 -7 235z" />
    <glyph glyph-name="quotedbl" unicode="&#x22;" horiz-adv-x="375" 
d="M75 591v109h50v-109l-7 -106h-36c-5 56 -7 91 -7 106zM250 591v109h50v-109l-7 -106h-36c-5 56 -7 91 -7 106z" />
    <glyph glyph-name="numbersign" unicode="#" horiz-adv-x="508" 
d="M138 503h-102v47h112l35 157l51 -15l-31 -142h155l35 157l51 -15l-31 -142h73v-47h-83l-45 -206h103v-47h-113l-34 -157l-53 14l31 143h-154l-34 -157l-53 14l31 143h-71v47h82zM348 503h-155l-45 -206h155z" />
    <glyph glyph-name="dollar" unicode="$" horiz-adv-x="390" 
d="M219 25h-48v73c-59 11 -101 62 -101 123v46h50v-49c0 -41 34 -75 75 -75s75 34 75 75v3c0 15 -3 27 -10 36l-163 248c-18 21 -27 46 -27 74c0 61 42 112 101 123v73h48v-73c57 -11 101 -63 101 -123v-46h-50v49c0 41 -34 75 -75 75s-75 -34 -75 -75v-3
c-1 -13 3 -26 12 -39l164 -248c16 -21 24 -45 24 -71c0 -60 -44 -112 -101 -123v-73z" />
    <glyph glyph-name="percent" unicode="%" horiz-adv-x="760" 
d="M75 471v108c0 35 12 64 36 88c25 25 54 37 89 37s64 -12 88 -37c25 -24 37 -53 37 -88v-108c0 -35 -12 -64 -37 -89c-24 -24 -53 -36 -88 -36s-64 12 -89 36c-24 25 -36 54 -36 89zM125 582v-114c0 -41 34 -75 75 -75s75 34 75 75v114c0 41 -34 75 -75 75
s-75 -34 -75 -75zM435 171v108c0 35 12 64 36 88c25 25 54 37 89 37s64 -12 88 -37c25 -24 37 -53 37 -88v-108c0 -35 -12 -64 -37 -89c-24 -24 -53 -36 -88 -36s-64 12 -89 36c-24 25 -36 54 -36 89zM485 282v-114c0 -41 34 -75 75 -75s75 34 75 75v114c0 41 -34 75 -75 75
s-75 -34 -75 -75zM558 682l-318 -636l-44 22l318 636z" />
    <glyph glyph-name="ampersand" unicode="&#x26;" 
d="M125 582v-149c0 -41 34 -75 75 -75h164v-47h-39v-90c0 -35 -12 -64 -37 -89c-24 -24 -53 -36 -88 -36s-64 12 -89 36c-24 25 -36 54 -36 89v12c0 43 17 77 51 101c-34 25 -51 59 -51 102v143c0 35 12 64 36 88c25 25 54 37 89 37s64 -12 88 -37c25 -24 37 -53 37 -88v-50
h-50v53c0 41 -34 75 -75 75s-75 -34 -75 -75zM275 311h-75c-41 0 -75 -34 -75 -75v-18c0 -41 34 -75 75 -75s75 34 75 75v93z" />
    <glyph glyph-name="quotesingle" unicode="'" horiz-adv-x="200" 
d="M75 591v109h50v-109l-7 -106h-36c-5 56 -7 91 -7 106z" />
    <glyph glyph-name="parenleft" unicode="(" horiz-adv-x="242" 
d="M112 812l14 47l46 -18c-4 -11 -9 -27 -15 -49c-5 -21 -13 -70 -23 -147c-9 -76 -14 -158 -14 -245s4 -168 13 -242c9 -73 17 -125 26 -154l13 -45l-46 -18c-4 11 -9 28 -16 51c-6 23 -14 74 -25 153c-10 79 -15 164 -15 255s5 174 14 250c9 77 19 131 28 162z" />
    <glyph glyph-name="parenright" unicode=")" horiz-adv-x="242" 
d="M83 796l-13 45l46 18c4 -11 9 -28 15 -51c7 -23 15 -74 25 -153c11 -79 16 -164 16 -255s-5 -174 -14 -251c-9 -76 -19 -130 -28 -161l-14 -47l-46 18c4 11 9 27 14 48c6 22 14 71 23 147c10 77 15 159 15 246s-4 168 -13 241c-9 74 -17 126 -26 155z" />
    <glyph glyph-name="asterisk" unicode="*" 
d="M177 505l-22 -37l-35 20l21 38l32 44l-55 -4h-43v41h43l55 -5l-32 45l-21 38l35 20l22 -37l23 -50l23 50l22 37l35 -21l-21 -37l-32 -45l55 5h43v-41h-43l-55 5l32 -45l21 -38l-35 -20l-22 37l-23 50z" />
    <glyph glyph-name="plus" unicode="+" horiz-adv-x="514" 
d="M232 355h-200v47h200v198h50v-198h200v-47h-200v-205h-50v205z" />
    <glyph glyph-name="comma" unicode="," horiz-adv-x="200" 
d="M75 7v147h50v-53c0 -17 -6 -54 -11 -77l-3 -17h-36z" />
    <glyph glyph-name="hyphen" unicode="-" horiz-adv-x="314" 
d="M282 355h-250v47h250v-47z" />
    <glyph glyph-name="period" unicode="." horiz-adv-x="213" 
d="M71 126c0 39 58 39 58 0c0 -37 -58 -37 -58 0z" />
    <glyph glyph-name="slash" unicode="/" horiz-adv-x="580" 
d="M512 789l-400 -800l-44 22l400 800z" />
    <glyph glyph-name="zero" unicode="0" horiz-adv-x="500" 
d="M75 171v458c0 49 17 90 51 124s75 51 124 51s90 -17 124 -51s51 -75 51 -124v-458c0 -49 -17 -90 -51 -124s-75 -51 -124 -51s-90 17 -124 51s-51 75 -51 124zM125 632v-464c0 -35 12 -64 36 -89c25 -24 54 -36 89 -36s64 12 88 36c25 25 37 54 37 89v464
c0 35 -12 64 -37 88c-24 25 -53 37 -88 37s-64 -12 -89 -37c-24 -24 -36 -53 -36 -88z" />
    <glyph glyph-name="one" unicode="1" horiz-adv-x="315" 
d="M230 0h-50v753h-125v47h175v-800z" />
    <glyph glyph-name="two" unicode="2" horiz-adv-x="500" 
d="M425 0h-350v47l285 520c10 19 15 38 15 59v6c0 35 -12 64 -37 88c-24 25 -53 37 -88 37s-64 -12 -89 -37c-24 -24 -36 -53 -36 -88v-39h-50v36c0 49 17 90 51 124s75 51 124 51s90 -17 124 -51s51 -75 51 -124c0 -32 -8 -62 -25 -89l-270 -493h295v-47z" />
    <glyph glyph-name="three" unicode="3" horiz-adv-x="500" 
d="M348 753h-269v47h332v-47l-194 -206h33c49 0 90 -17 124 -51s51 -75 51 -124v-201c0 -49 -17 -90 -51 -124s-75 -51 -124 -51s-90 17 -124 51s-51 75 -51 124v36h50v-39c0 -35 12 -64 36 -89c25 -24 54 -36 89 -36s64 12 88 36c25 25 37 54 37 89v207c0 35 -12 64 -37 88
c-24 25 -53 37 -88 37h-96v47z" />
    <glyph glyph-name="four" unicode="4" horiz-adv-x="491" 
d="M366 250h-291v47l291 503h50v-800h-50v250zM366 700l-234 -403h234v403z" />
    <glyph glyph-name="five" unicode="5" horiz-adv-x="500" 
d="M375 168v207c0 35 -12 64 -37 88c-24 25 -53 37 -88 37h-171v300h332v-47h-282v-206h121c49 0 90 -17 124 -51s51 -75 51 -124v-201c0 -49 -17 -90 -51 -124s-75 -51 -124 -51s-90 17 -124 51s-51 75 -51 124v36h50v-39c0 -35 12 -64 36 -89c25 -24 54 -36 89 -36
s64 12 88 36c25 25 37 54 37 89z" />
    <glyph glyph-name="six" unicode="6" horiz-adv-x="500" 
d="M250 546c49 0 90 -17 124 -51s51 -75 51 -124v-200c0 -49 -17 -90 -51 -124s-75 -51 -124 -51s-90 17 -124 51s-51 75 -51 124v458c0 49 17 90 51 124s75 51 124 51s90 -17 124 -51s51 -75 51 -124v-30h-50v33c0 35 -12 64 -37 88c-24 25 -53 37 -88 37s-64 -12 -89 -37
c-24 -24 -36 -53 -36 -88v-138c33 35 75 52 125 52zM125 379v-211c0 -35 12 -64 36 -89c25 -24 54 -36 89 -36s64 12 88 36c25 25 37 54 37 89v206c0 34 -12 63 -37 88c-24 25 -53 37 -88 37c-34 0 -63 -12 -87 -36c-24 -23 -37 -51 -38 -84z" />
    <glyph glyph-name="seven" unicode="7" horiz-adv-x="448" 
d="M315 753h-286v47h338v-47l-186 -753h-50z" />
    <glyph glyph-name="eight" unicode="8" horiz-adv-x="486" 
d="M69 171c0 45 16 84 47 117l95 114l-90 108c-33 33 -50 73 -50 119c0 49 17 90 50 124s74 51 122 51s88 -17 121 -51s50 -75 50 -124c0 -47 -16 -86 -49 -119l-91 -109l95 -113c32 -32 48 -71 48 -117c0 -49 -17 -90 -51 -124c-33 -34 -74 -51 -123 -51s-90 17 -124 51
c-33 34 -50 75 -50 124zM367 168v3c0 30 -9 56 -28 78l-96 115l-96 -115c-19 -22 -28 -48 -28 -78v-3c0 -35 12 -64 36 -89c24 -24 53 -36 88 -36s64 12 88 36c24 25 36 54 36 89zM121 632v-3c0 -31 10 -57 31 -80l90 -109l92 109c20 25 30 51 30 80v3c0 35 -12 64 -35 88
c-23 25 -52 37 -86 37s-63 -12 -87 -37c-23 -24 -35 -53 -35 -88z" />
    <glyph glyph-name="nine" unicode="9" horiz-adv-x="500" 
d="M75 429v200c0 49 17 90 51 124s75 51 124 51s90 -17 124 -51s51 -75 51 -124v-458c0 -49 -17 -90 -51 -124s-75 -51 -124 -51s-90 17 -124 51s-51 75 -51 124v30h50v-33c0 -35 12 -64 36 -89c25 -24 54 -36 89 -36s64 12 88 36c25 25 37 54 37 89v138
c-35 -35 -76 -52 -125 -52s-90 17 -124 51s-51 75 -51 124zM375 426v206c0 35 -12 64 -37 88c-24 25 -53 37 -88 37s-64 -12 -89 -37c-24 -24 -36 -53 -36 -88v-206c0 -34 12 -63 36 -88c25 -25 54 -37 89 -37s64 12 88 37c25 25 37 54 37 88z" />
    <glyph glyph-name="colon" unicode=":" horiz-adv-x="213" 
d="M71 126c0 39 58 39 58 0c0 -37 -58 -37 -58 0zM71 576c0 39 58 39 58 0c0 -37 -58 -37 -58 0z" />
    <glyph glyph-name="semicolon" unicode=";" horiz-adv-x="213" 
d="M75 7v147h50v-53c0 -17 -6 -54 -11 -77l-3 -17h-36zM71 576c0 39 58 39 58 0c0 -37 -58 -37 -58 0z" />
    <glyph glyph-name="less" unicode="&#x3c;" horiz-adv-x="345" 
d="M46 400l204 305l41 -28l-185 -277l185 -277l-41 -28z" />
    <glyph glyph-name="equal" unicode="=" horiz-adv-x="464" 
d="M432 253h-400v47h400v-47zM432 450h-400v47h400v-47z" />
    <glyph glyph-name="greater" unicode="&#x3e;" horiz-adv-x="345" 
d="M231 400l-185 277l42 28l203 -305l-203 -305l-42 28z" />
    <glyph glyph-name="question" unicode="?" 
d="M125 584v-51h-50v48c0 35 12 64 36 88c25 25 54 37 89 37s64 -12 88 -37c25 -24 37 -53 37 -88v-38c0 -33 -16 -82 -36 -109l-45 -83c-13 -24 -19 -48 -19 -72v-5l-6 -45h-38c-4 26 -6 41 -6 45v5c0 33 16 81 35 109l46 82c11 21 18 46 19 73v41c0 41 -34 75 -75 75
s-75 -34 -75 -75zM171 126c0 39 58 39 58 0c0 -37 -58 -37 -58 0z" />
    <glyph glyph-name="at" unicode="@" horiz-adv-x="800" 
d="M275 321v158c0 35 12 64 36 88c25 25 54 37 89 37s64 -12 88 -37c25 -24 37 -53 37 -88v-158c0 -41 34 -75 75 -75s75 34 75 75v161c0 76 -27 141 -81 194c-53 54 -118 81 -194 81s-141 -27 -195 -81c-53 -53 -80 -118 -80 -194v-160c0 -76 27 -141 80 -195
c54 -53 119 -80 195 -80h175v-47h-175c-90 0 -167 32 -230 95s-95 140 -95 230v154c0 90 32 167 95 230s140 95 230 95s167 -32 230 -95s95 -140 95 -230v-158c0 -35 -12 -64 -37 -89c-24 -24 -53 -36 -88 -36c-41 0 -75 16 -100 49c-26 -33 -59 -49 -100 -49
c-35 0 -64 12 -89 36c-24 25 -36 54 -36 89zM325 482v-164c0 -41 34 -75 75 -75c40 0 74 33 75 73v166c0 41 -34 75 -75 75s-75 -34 -75 -75z" />
    <glyph glyph-name="A" unicode="A" horiz-adv-x="503" 
d="M226 800h50l171 -800h-50l-32 150h-228l-31 -150h-50zM355 197l-104 491l-104 -491h208z" />
    <glyph glyph-name="B" unicode="B" horiz-adv-x="500" 
d="M250 0h-175v800h175c49 0 90 -17 124 -51s51 -75 51 -124v-147c0 -64 -34 -121 -87 -152c53 -31 87 -87 87 -151c0 -49 -17 -90 -51 -124s-75 -51 -124 -51zM250 753h-125v-403h130c33 1 62 14 85 38s35 53 35 87v153c0 35 -12 64 -37 88c-24 25 -53 37 -88 37zM250 303
h-125v-256h125c35 0 64 12 88 36c25 25 37 54 37 89v6c0 35 -12 64 -37 88c-24 25 -53 37 -88 37z" />
    <glyph glyph-name="C" unicode="C" horiz-adv-x="500" 
d="M125 632v-464c0 -35 12 -64 36 -89c25 -24 54 -36 89 -36s64 12 88 36c25 25 37 54 37 89v39h50v-36c0 -49 -17 -90 -51 -124s-75 -51 -124 -51s-90 17 -124 51s-51 75 -51 124v458c0 49 17 90 51 124s75 51 124 51s90 -17 124 -51s51 -75 51 -124v-36h-50v39
c0 35 -12 64 -37 88c-24 25 -53 37 -88 37s-64 -12 -89 -37c-24 -24 -36 -53 -36 -88z" />
    <glyph glyph-name="D" unicode="D" horiz-adv-x="500" 
d="M250 0h-175v800h175c49 0 90 -17 124 -51s51 -75 51 -124v-450c0 -49 -17 -90 -51 -124s-75 -51 -124 -51zM250 753h-125v-706h125c35 0 64 12 88 36c25 25 37 54 37 89v456c0 35 -12 64 -37 88c-24 25 -53 37 -88 37z" />
    <glyph glyph-name="E" unicode="E" horiz-adv-x="420" 
d="M361 0h-286v800h286v-47h-236v-454h186v-48h-186v-204h236v-47z" />
    <glyph glyph-name="F" unicode="F" horiz-adv-x="415" 
d="M125 0h-50v800h311v-47h-261v-429h211v-48h-211v-276z" />
    <glyph glyph-name="G" unicode="G" horiz-adv-x="500" 
d="M125 632v-464c0 -35 12 -64 36 -89c25 -24 54 -36 89 -36s64 12 88 36c25 25 37 54 37 89v83h-125v48h175v-128c0 -49 -17 -90 -51 -124s-75 -51 -124 -51s-90 17 -124 51s-51 75 -51 124v458c0 49 17 90 51 124s75 51 124 51s90 -17 124 -51s51 -75 51 -124v-36h-50v39
c0 35 -12 64 -37 88c-24 25 -53 37 -88 37s-64 -12 -89 -37c-24 -24 -36 -53 -36 -88z" />
    <glyph glyph-name="H" unicode="H" horiz-adv-x="500" 
d="M425 0h-50v251h-250v-251h-50v800h50v-501h250v501h50v-800z" />
    <glyph glyph-name="I" unicode="I" horiz-adv-x="213" 
d="M131 0h-50v800h50v-800z" />
    <glyph glyph-name="J" unicode="J" horiz-adv-x="200" 
d="M0 -250h-46v47h46c41 0 75 34 75 75v928h50v-925c0 -35 -12 -64 -37 -88c-24 -25 -53 -37 -88 -37z" />
    <glyph glyph-name="K" unicode="K" horiz-adv-x="500" 
d="M125 0h-50v800h50v-446l245 446h56l-178 -325l181 -475h-53l-160 418l-91 -167v-251z" />
    <glyph glyph-name="L" unicode="L" horiz-adv-x="421" 
d="M372 0h-297v800h50v-753h247v-47z" />
    <glyph glyph-name="M" unicode="M" horiz-adv-x="550" 
d="M425 800h50v-800h-50v703l-125 -207h-50l-125 207v-703h-50v800h50l150 -248z" />
    <glyph glyph-name="N" unicode="N" horiz-adv-x="525" 
d="M450 0h-50l-275 666v-666h-50v800h50l275 -667v667h50v-800z" />
    <glyph glyph-name="O" unicode="O" horiz-adv-x="500" 
d="M75 171v458c0 49 17 90 51 124s75 51 124 51s90 -17 124 -51s51 -75 51 -124v-458c0 -49 -17 -90 -51 -124s-75 -51 -124 -51s-90 17 -124 51s-51 75 -51 124zM125 632v-464c0 -35 12 -64 36 -89c25 -24 54 -36 89 -36s64 12 88 36c25 25 37 54 37 89v464
c0 35 -12 64 -37 88c-24 25 -53 37 -88 37s-64 -12 -89 -37c-24 -24 -36 -53 -36 -88z" />
    <glyph glyph-name="P" unicode="P" horiz-adv-x="500" 
d="M125 0h-50v800h175c49 0 90 -17 124 -51s51 -75 51 -124v-199c0 -49 -17 -90 -51 -124s-75 -51 -124 -51h-125v-251zM250 753h-125v-454h125c35 0 64 12 88 36c25 25 37 54 37 89v204c0 35 -12 64 -37 88c-24 25 -53 37 -88 37z" />
    <glyph glyph-name="Q" unicode="Q" horiz-adv-x="500" 
d="M275 -150h-50v148c-43 6 -78 25 -107 58s-43 71 -43 115v458c0 49 17 90 51 124s75 51 124 51s90 -17 124 -51s51 -75 51 -124v-458c0 -44 -14 -82 -43 -115s-64 -52 -107 -58v-148zM125 632v-464c0 -35 12 -64 36 -89c25 -24 54 -36 89 -36s64 12 88 36
c25 25 37 54 37 89v464c0 35 -12 64 -37 88c-24 25 -53 37 -88 37s-64 -12 -89 -37c-24 -24 -36 -53 -36 -88z" />
    <glyph glyph-name="R" unicode="R" horiz-adv-x="500" 
d="M125 251v-251h-50v800h175c49 0 90 -17 124 -51s51 -75 51 -124v-199c0 -64 -34 -120 -87 -152c53 -31 87 -87 87 -150v-124h-50v126c0 35 -12 64 -37 88c-24 25 -53 37 -88 37h-125zM250 753h-125v-454h130c33 1 62 14 85 38s35 53 35 87v204c0 35 -12 64 -37 88
c-24 25 -53 37 -88 37z" />
    <glyph glyph-name="S" unicode="S" horiz-adv-x="490" 
d="M70 171v36h50v-39c0 -35 12 -64 36 -89c25 -24 54 -36 89 -36s64 12 88 36c25 25 37 54 37 89v3c0 29 -10 55 -29 78l-217 261c-33 32 -50 72 -50 119c0 49 16 90 49 124s74 51 122 51c47 0 88 -17 121 -51s50 -75 50 -124v-36h-50v39c0 35 -12 64 -36 88
c-23 25 -52 37 -85 37c-34 0 -63 -12 -86 -37c-23 -24 -35 -53 -35 -88v-3c0 -31 10 -57 31 -80l217 -261c32 -32 48 -71 48 -117c0 -49 -17 -90 -51 -124s-75 -51 -124 -51s-90 17 -124 51s-51 75 -51 124z" />
    <glyph glyph-name="T" unicode="T" horiz-adv-x="401" 
d="M175 753h-139v47h329v-47h-140v-753h-50v753z" />
    <glyph glyph-name="U" unicode="U" horiz-adv-x="500" 
d="M125 800v-632c0 -35 12 -64 36 -89c25 -24 54 -36 89 -36s64 12 88 36c25 25 37 54 37 89v632h50v-629c0 -49 -17 -90 -51 -124s-75 -51 -124 -51s-90 17 -124 51s-51 75 -51 124v629h50z" />
    <glyph glyph-name="V" unicode="V" horiz-adv-x="491" 
d="M271 0h-50l-165 800h50l140 -668l139 668h51z" />
    <glyph glyph-name="W" unicode="W" horiz-adv-x="550" 
d="M125 0h-50v800h50v-704l125 208h50l125 -208v704h50v-800h-50l-150 248z" />
    <glyph glyph-name="X" unicode="X" horiz-adv-x="476" 
d="M359 800h54l-148 -398l152 -402h-53l-127 337l-125 -337h-53l151 408l-147 392h53l123 -326z" />
    <glyph glyph-name="Y" unicode="Y" horiz-adv-x="470" 
d="M260 0h-50v251l-154 549h52l127 -460l127 460h52l-154 -549v-251z" />
    <glyph glyph-name="Z" unicode="Z" horiz-adv-x="490" 
d="M357 753h-278v47h332v-47l-283 -706h287v-47h-340v47z" />
    <glyph glyph-name="bracketleft" unicode="[" horiz-adv-x="325" 
d="M250 803h-125v-806h125v-47h-175v900h175v-47z" />
    <glyph glyph-name="backslash" unicode="\" horiz-adv-x="580" 
d="M112 811l400 -800l-44 -22l-400 800z" />
    <glyph glyph-name="bracketright" unicode="]" horiz-adv-x="325" 
d="M75 -3h125v806h-125v47h175v-900h-175v47z" />
    <glyph glyph-name="underscore" unicode="_" horiz-adv-x="500" 
d="M468 -44h-436v44h436v-44z" />
    <glyph glyph-name="grave" unicode="`" horiz-adv-x="250" 
d="M52 873l161 -57l-13 -36l-162 51z" />
    <glyph glyph-name="a" unicode="a" horiz-adv-x="391" 
d="M170 700h50l115 -600h-47l-25 130h-136l-24 -130h-47zM254 277l-59 311l-59 -311h118z" />
    <glyph glyph-name="b" unicode="b" 
d="M200 100h-125v600h125c35 0 64 -12 88 -37c25 -24 37 -53 37 -88v-147c0 -43 -17 -77 -52 -102c35 -24 52 -58 52 -101c0 -35 -12 -64 -37 -89c-24 -24 -53 -36 -88 -36zM200 653h-75v-303h78c39 0 72 35 72 75v153c0 41 -34 75 -75 75zM203 303h-78v-156h75
c41 0 75 34 75 75v6c0 40 -33 72 -72 75z" />
    <glyph glyph-name="c" unicode="c" 
d="M125 582v-364c0 -41 34 -75 75 -75s75 34 75 75v53h50v-50c0 -35 -12 -64 -37 -89c-24 -24 -53 -36 -88 -36s-64 12 -89 36c-24 25 -36 54 -36 89v358c0 35 12 64 36 88c25 25 54 37 89 37s64 -12 88 -37c25 -24 37 -53 37 -88v-50h-50v53c0 41 -34 75 -75 75
s-75 -34 -75 -75z" />
    <glyph glyph-name="d" unicode="d" 
d="M200 100h-125v600h125c35 0 64 -12 88 -37c25 -24 37 -53 37 -88v-350c0 -35 -12 -64 -37 -89c-24 -24 -53 -36 -88 -36zM200 653h-75v-506h75c41 0 75 34 75 75v356c0 41 -34 75 -75 75z" />
    <glyph glyph-name="e" unicode="e" horiz-adv-x="359" 
d="M300 100h-225v600h225v-47h-175v-309h150v-48h-150v-149h175v-47z" />
    <glyph glyph-name="f" unicode="f" horiz-adv-x="329" 
d="M125 100h-50v600h225v-47h-175v-309h150v-48h-150v-196z" />
    <glyph glyph-name="g" unicode="g" 
d="M125 582v-364c0 -41 34 -75 75 -75s75 34 75 75v80h-75v47h125v-124c0 -35 -12 -64 -37 -89c-24 -24 -53 -36 -88 -36s-64 12 -89 36c-24 25 -36 54 -36 89v358c0 35 12 64 36 88c25 25 54 37 89 37s64 -12 88 -37c25 -24 37 -53 37 -88v-50h-50v53c0 41 -34 75 -75 75
s-75 -34 -75 -75z" />
    <glyph glyph-name="h" unicode="h" 
d="M325 100h-50v196h-150v-196h-50v600h50v-356h150v356h50v-600z" />
    <glyph glyph-name="i" unicode="i" horiz-adv-x="213" 
d="M131 100h-50v600h50v-600z" />
    <glyph glyph-name="j" unicode="j" horiz-adv-x="200" 
d="M0 -54h-21v47h21c41 0 75 34 75 75v632h50v-629c0 -35 -12 -64 -37 -88c-24 -25 -53 -37 -88 -37z" />
    <glyph glyph-name="k" unicode="k" 
d="M125 100h-50v600h50v-297l149 297h55l-122 -241l122 -359h-52l-101 296l-51 -100v-196z" />
    <glyph glyph-name="l" unicode="l" horiz-adv-x="321" 
d="M275 100h-200v600h50v-553h150v-47z" />
    <glyph glyph-name="m" unicode="m" horiz-adv-x="450" 
d="M375 100h-50v494l-78 -144h-44l-78 144v-494h-50v600h50l100 -189l100 189h50v-600z" />
    <glyph glyph-name="n" unicode="n" horiz-adv-x="425" 
d="M350 100h-50l-175 466v-466h-50v600h50l175 -467v467h50v-600z" />
    <glyph glyph-name="o" unicode="o" 
d="M75 221v358c0 35 12 64 36 88c25 25 54 37 89 37s64 -12 88 -37c25 -24 37 -53 37 -88v-358c0 -35 -12 -64 -37 -89c-24 -24 -53 -36 -88 -36s-64 12 -89 36c-24 25 -36 54 -36 89zM125 582v-364c0 -41 34 -75 75 -75s75 34 75 75v364c0 41 -34 75 -75 75
s-75 -34 -75 -75z" />
    <glyph glyph-name="p" unicode="p" 
d="M125 100h-50v600h125c35 0 64 -12 88 -37c25 -24 37 -53 37 -88v-154c0 -34 -12 -63 -37 -88c-24 -25 -53 -37 -88 -37h-75v-196zM200 653h-75v-309h75c41 0 75 34 75 75v159c0 41 -34 75 -75 75z" />
    <glyph glyph-name="q" unicode="q" 
d="M225 0h-50v98c-57 12 -100 63 -100 123v358c0 35 12 64 36 88c25 25 54 37 89 37s64 -12 88 -37c25 -24 37 -53 37 -88v-358c0 -60 -43 -111 -100 -123v-98zM125 582v-364c0 -41 34 -75 75 -75s75 34 75 75v364c0 41 -34 75 -75 75s-75 -34 -75 -75z" />
    <glyph glyph-name="r" unicode="r" 
d="M125 100h-50v600h125c35 0 64 -12 88 -37c25 -24 37 -53 37 -88v-154c0 -43 -17 -76 -52 -101c35 -25 52 -58 52 -101v-119h-50v121c0 41 -34 75 -75 75h-75v-196zM200 653h-75v-309h75c41 0 75 34 75 75v159c0 41 -34 75 -75 75z" />
    <glyph glyph-name="s" unicode="s" horiz-adv-x="390" 
d="M70 221v46h50v-49c0 -41 34 -75 75 -75s75 34 75 75v3c0 15 -3 27 -10 36l-163 248c-18 21 -27 46 -27 74c0 35 12 64 36 88c25 25 54 37 89 37s64 -12 88 -37c25 -24 37 -53 37 -88v-46h-50v49c0 41 -34 75 -75 75s-75 -34 -75 -75v-3c-1 -13 3 -26 12 -39l164 -248
c16 -21 24 -45 24 -71c0 -35 -12 -64 -37 -89c-24 -24 -53 -36 -88 -36s-64 12 -89 36c-24 25 -36 54 -36 89z" />
    <glyph glyph-name="t" unicode="t" horiz-adv-x="301" 
d="M126 653h-90v47h229v-47h-89v-553h-50v553z" />
    <glyph glyph-name="u" unicode="u" 
d="M125 700v-482c0 -41 34 -75 75 -75s75 34 75 75v482h50v-479c0 -35 -12 -64 -37 -89c-24 -24 -53 -36 -88 -36s-64 12 -89 36c-24 25 -36 54 -36 89v479h50z" />
    <glyph glyph-name="v" unicode="v" horiz-adv-x="391" 
d="M220 100h-50l-114 600h47l92 -488l93 488h47z" />
    <glyph glyph-name="w" unicode="w" horiz-adv-x="450" 
d="M75 700h50v-495l78 145h44l78 -145v495h50v-600h-50l-100 189l-100 -189h-50v600z" />
    <glyph glyph-name="x" unicode="x" horiz-adv-x="391" 
d="M271 700h52l-100 -304l100 -296h-53l-75 226l-73 -226h-53l99 302l-99 298h52l76 -227z" />
    <glyph glyph-name="y" unicode="y" horiz-adv-x="361" 
d="M205 100h-50v196l-109 404h48l86 -324l87 324h48l-110 -404v-196z" />
    <glyph glyph-name="z" unicode="z" 
d="M269 653h-190v47h242v-47l-195 -506h199v-47h-250v47z" />
    <glyph glyph-name="braceleft" unicode="{" horiz-adv-x="377" 
d="M180 850h122v-47h-122l1 -328c0 -24 -8 -44 -25 -61l-14 -14l14 -14c17 -17 25 -37 25 -61v-328h121v-47h-121c-28 0 -50 22 -50 50v325c0 9 -4 18 -11 25l-50 50l50 50c7 7 11 16 11 25l-1 325c0 28 22 50 50 50z" />
    <glyph glyph-name="bar" unicode="|" horiz-adv-x="213" 
d="M131 -50h-50v900h50v-900z" />
    <glyph glyph-name="braceright" unicode="}" horiz-adv-x="377" 
d="M197 -50h-122v47h122l-1 328c0 24 8 44 25 61l14 14l-14 14c-17 17 -25 37 -25 61v328h-121v47h121c29 0 50 -22 50 -50v-325c0 -8 4 -16 11 -25l50 -50l-50 -50c-7 -9 -11 -17 -11 -25l1 -325c0 -28 -22 -50 -50 -50z" />
    <glyph glyph-name="nbspace" unicode="&#xa0;" horiz-adv-x="250" 
 />
    <glyph glyph-name="exclamdown" unicode="&#xa1;" horiz-adv-x="200" 
d="M71 674c0 37 58 37 58 0c0 -39 -58 -39 -58 0zM125 100h-50v236l7 235h36c5 -138 7 -216 7 -235v-236z" />
    <glyph glyph-name="cent" unicode="&#xa2;" 
d="M224 25h-48v73c-59 11 -101 62 -101 123v358c0 61 42 112 101 123v73h48v-73c57 -11 101 -63 101 -123v-50h-50v53c0 41 -34 75 -75 75s-75 -34 -75 -75v-364c0 -41 34 -75 75 -75s75 34 75 75v53h50v-50c0 -60 -44 -112 -101 -123v-73z" />
    <glyph glyph-name="sterling" unicode="&#xa3;" horiz-adv-x="380" 
d="M341 100h-319v47h64v432c0 35 12 64 37 88c25 25 54 37 88 37c35 0 64 -12 88 -37c25 -24 37 -53 37 -88v-50h-50v53c0 41 -34 75 -75 75s-75 -34 -75 -75v-186h140v-47h-140v-202h205v-47z" />
    <glyph glyph-name="currency" unicode="&#xa4;" horiz-adv-x="500" 
d="M425 110h-50c0 53 -43 100 -96 103h-54c-27 0 -51 -10 -71 -31c-19 -20 -29 -44 -29 -72h-50c0 55 23 97 69 126c-46 29 -69 72 -69 127v74c0 55 23 97 69 126c-46 29 -69 72 -69 127h50c0 -28 10 -52 29 -73c20 -20 44 -30 71 -30h54c27 1 49 11 68 31
c19 21 28 45 28 72h50c0 -55 -23 -97 -70 -127c43 -27 70 -74 70 -126v-74c0 -55 -23 -97 -70 -127c43 -27 70 -74 70 -126zM125 440v-80c0 -55 45 -100 100 -100h54c53 3 96 47 96 100v80c0 55 -45 100 -100 100h-54c-53 -1 -96 -47 -96 -100z" />
    <glyph glyph-name="yen" unicode="&#xa5;" horiz-adv-x="381" 
d="M160 314h-108v47h95l-91 339h48l86 -324l87 324h48l-92 -339h96v-47h-109l-5 -18v-77h114v-48h-114v-71h-50v71h-113v48h113v77z" />
    <glyph glyph-name="brokenbar" unicode="&#xa6;" horiz-adv-x="213" 
d="M131 -50h-50v407h50v-407zM81 850h50v-407h-50v407z" />
    <glyph glyph-name="section" unicode="&#xa7;" horiz-adv-x="415" 
d="M70 121v46h50v-49c0 -41 34 -75 75 -75s75 34 75 75v3c0 15 -3 27 -10 36l-163 248c-18 21 -27 46 -27 74c0 47 24 88 63 109l-11 17c-18 21 -27 46 -27 74c0 35 12 64 36 88c25 25 54 37 89 37s64 -12 88 -37c25 -24 37 -53 37 -88v-46h-50v49c0 41 -34 75 -75 75
s-75 -34 -75 -75v-3c-1 -13 3 -26 12 -39l164 -248c16 -21 24 -45 24 -71c0 -45 -24 -86 -63 -109l14 -20c16 -24 24 -48 24 -71c0 -35 -12 -64 -37 -89c-24 -24 -53 -36 -88 -36s-64 12 -89 36c-24 25 -36 54 -36 89zM120 482v-3c-1 -13 3 -26 12 -39l124 -188
c26 15 39 37 39 66v3c0 15 -3 27 -10 36l-126 191c-26 -13 -39 -35 -39 -66z" />
    <glyph glyph-name="dieresis" unicode="&#xa8;" 
d="M106 806c-24 24 15 63 37 37c26 -22 -13 -61 -37 -37zM256 806c-24 24 15 63 37 37c26 -22 -13 -61 -37 -37z" />
    <glyph glyph-name="copyright" unicode="&#xa9;" horiz-adv-x="800" 
d="M75 321v158c0 90 32 167 95 230s140 95 230 95s167 -32 230 -95s95 -140 95 -230v-158c0 -90 -32 -167 -95 -230s-140 -95 -230 -95s-167 32 -230 95s-95 140 -95 230zM125 482v-164c0 -76 27 -141 80 -195c54 -53 119 -80 195 -80s141 27 194 80c54 54 81 119 81 195
v164c0 76 -27 141 -81 194c-53 54 -118 81 -194 81s-141 -27 -195 -81c-53 -53 -80 -118 -80 -194zM325 482v-164c0 -41 34 -75 75 -75s75 34 75 75v21h50v-18c0 -35 -12 -64 -37 -89c-24 -24 -53 -36 -88 -36s-64 12 -89 36c-24 25 -36 54 -36 89v158c0 35 12 64 36 88
c25 25 54 37 89 37s64 -12 88 -37c25 -24 37 -53 37 -88v-18h-50v21c0 41 -34 75 -75 75s-75 -34 -75 -75z" />
    <glyph glyph-name="ordfeminine" unicode="&#xaa;" 
d="M325 463h-50v16c-22 -17 -47 -25 -75 -25c-35 0 -64 12 -89 36c-24 25 -36 54 -36 89s12 64 36 88c25 25 54 37 89 37c27 0 52 -8 75 -25v21h50v-237zM125 582v-6c0 -41 34 -75 75 -75s75 34 75 75v6c0 41 -34 75 -75 75s-75 -34 -75 -75z" />
    <glyph glyph-name="guillemotleft" unicode="&#xab;" horiz-adv-x="565" 
d="M46 400l204 305l41 -28l-185 -277l185 -277l-41 -28zM266 400l204 305l41 -28l-185 -277l185 -277l-41 -28z" />
    <glyph glyph-name="logicalnot" unicode="&#xac;" horiz-adv-x="507" 
d="M382 355h-350v47h400v-202h-50v155z" />
    <glyph glyph-name="registered" unicode="&#xae;" horiz-adv-x="800" 
d="M75 321v158c0 90 32 167 95 230s140 95 230 95s167 -32 230 -95s95 -140 95 -230v-158c0 -90 -32 -167 -95 -230s-140 -95 -230 -95s-167 32 -230 95s-95 140 -95 230zM125 482v-164c0 -76 27 -141 80 -195c54 -53 119 -80 195 -80s141 27 194 80c54 54 81 119 81 195
v164c0 76 -27 141 -81 194c-53 54 -118 81 -194 81s-141 -27 -195 -81c-53 -53 -80 -118 -80 -194zM325 200h-50v400h125c35 0 64 -12 88 -37c25 -24 37 -53 37 -88v-54c0 -43 -17 -76 -52 -101c35 -25 52 -58 52 -101v-19h-50v21c0 41 -34 75 -75 75h-75v-96zM400 553h-75
v-209h75c41 0 75 34 75 75v59c0 41 -34 75 -75 75z" />
    <glyph glyph-name="overscore" unicode="&#xaf;" horiz-adv-x="200" 
d="M210 803h-220v41h220v-41z" />
    <glyph glyph-name="degree" unicode="&#xb0;" 
d="M111 490c-24 25 -36 54 -36 89s12 64 36 88c25 25 54 37 89 37s64 -12 88 -37c25 -24 37 -53 37 -88s-12 -64 -37 -89c-24 -24 -53 -36 -88 -36s-64 12 -89 36zM125 582v-6c0 -41 34 -75 75 -75s75 34 75 75v6c0 41 -34 75 -75 75s-75 -34 -75 -75z" />
    <glyph glyph-name="plusminus" unicode="&#xb1;" horiz-adv-x="514" 
d="M232 455h-182v47h182v180h50v-180h182v-47h-182v-187h-50v187zM464 103h-414v47h414v-47z" />
    <glyph glyph-name="acute" unicode="&#xb4;" horiz-adv-x="250" 
d="M213 831l-162 -51l-13 36l161 57z" />
    <glyph glyph-name="mu" unicode="&#xb5;" horiz-adv-x="450" 
d="M375 100h-50v494l-78 -144h-44l-78 144v-494h-50v600h50l100 -189l100 189h50v-600z" />
    <glyph glyph-name="paragraph" unicode="&#xb6;" horiz-adv-x="415" 
d="M200 700h179v-47h-54v-437c0 -34 -12 -63 -37 -88s-54 -37 -88 -37h-21v48h21c41 0 75 32 75 75v82h-75c-34 0 -63 12 -88 37s-37 54 -37 88v154c0 34 12 63 37 88s54 37 88 37z" />
    <glyph glyph-name="middot" unicode="&#xb7;" horiz-adv-x="213" 
d="M71 300c0 39 58 39 58 0c0 -37 -58 -37 -58 0z" />
    <glyph glyph-name="cedilla" unicode="&#xb8;" horiz-adv-x="525" 
d="M196 -61l32 61h36l-17 -36h23c32 0 55 -29 55 -64c0 -40 -33 -74 -93 -74c-29 0 -59 16 -71 28l-9 10l12 20c21 -20 43 -30 68 -30c33 0 50 21 50 46c0 19 -15 39 -38 39h-48z" />
    <glyph glyph-name="ordmasculine" unicode="&#xba;" 
d="M111 490c-24 25 -36 54 -36 89s12 64 36 88c25 25 54 37 89 37s64 -12 88 -37c25 -24 37 -53 37 -88s-12 -64 -37 -89c-24 -24 -53 -36 -88 -36s-64 12 -89 36zM125 582v-6c0 -41 34 -75 75 -75s75 34 75 75v6c0 41 -34 75 -75 75s-75 -34 -75 -75z" />
    <glyph glyph-name="guillemotright" unicode="&#xbb;" horiz-adv-x="565" 
d="M451 400l-185 277l42 28l203 -305l-203 -305l-42 28zM231 400l-185 277l42 28l203 -305l-203 -305l-42 28z" />
    <glyph glyph-name="questiondown" unicode="&#xbf;" 
d="M275 219v52h50v-49c0 -35 -12 -64 -37 -89c-24 -24 -53 -36 -88 -36s-64 12 -89 36c-24 25 -36 54 -36 89v39c0 33 16 82 36 109l45 83c13 24 19 48 19 72v5l6 45h38c4 -26 6 -41 6 -45v-5c0 -33 -16 -82 -35 -109l-46 -83c-13 -22 -19 -46 -19 -72v-42
c0 -41 34 -75 75 -75s75 34 75 75zM220 697c28 -25 -13 -66 -41 -41c-25 28 16 69 41 41z" />
    <glyph glyph-name="Agrave" unicode="&#xc0;" horiz-adv-x="503" 
d="M226 800h50l171 -800h-50l-32 150h-228l-31 -150h-50zM355 197l-104 491l-104 -491h208zM147 973l146 -57l-13 -36l-162 51z" />
    <glyph glyph-name="Aacute" unicode="&#xc1;" horiz-adv-x="503" 
d="M226 800h50l171 -800h-50l-32 150h-228l-31 -150h-50zM355 197l-104 491l-104 -491h208zM385 931l-162 -51l-13 36l161 57z" />
    <glyph glyph-name="Acircumflex" unicode="&#xc2;" horiz-adv-x="503" 
d="M226 800h50l171 -800h-50l-32 150h-228l-31 -150h-50zM355 197l-104 491l-104 -491h208zM262 1002l94 -87l-30 -33l-75 72l-75 -72l-30 33l94 87h22z" />
    <glyph glyph-name="Atilde" unicode="&#xc3;" horiz-adv-x="503" 
d="M149 900l-6 -2l-17 35l5 3c23 13 47 20 73 20c11 0 27 -4 46 -12s34 -12 45 -12c29 0 56 14 56 15l5 3l18 -36l-5 -2c-24 -14 -49 -21 -76 -21c-11 0 -26 4 -45 12s-33 12 -43 12c-29 0 -56 -14 -56 -15zM226 800h50l171 -800h-50l-32 150h-228l-31 -150h-50zM355 197
l-104 491l-104 -491h208z" />
    <glyph glyph-name="Adieresis" unicode="&#xc4;" horiz-adv-x="503" 
d="M226 800h50l171 -800h-50l-32 150h-228l-31 -150h-50zM355 197l-104 491l-104 -491h208zM147 906c-24 24 15 63 37 37c26 -22 -13 -61 -37 -37zM317 906c-24 24 15 63 37 37c26 -22 -13 -61 -37 -37z" />
    <glyph glyph-name="Aring" unicode="&#xc5;" horiz-adv-x="503" 
d="M226 800h50l171 -800h-50l-32 150h-228l-31 -150h-50zM355 197l-104 491l-104 -491h208zM182 856c-37 39 -37 100 0 137c39 39 100 39 137 0c39 -37 39 -98 0 -137c-37 -37 -98 -37 -137 0zM211 964c-21 -21 -21 -56 0 -79c23 -21 58 -21 79 0c23 23 23 58 0 79
c-21 23 -56 23 -79 0z" />
    <glyph glyph-name="AE" unicode="&#xc6;" horiz-adv-x="674" 
d="M616 0h-287v150h-192l-41 -150h-50l220 800h350v-47h-237v-454h187v-48h-187v-204h237v-47zM329 753h-26l-153 -556h179v556z" />
    <glyph glyph-name="Ccedilla" unicode="&#xc7;" horiz-adv-x="500" 
d="M125 632v-464c0 -35 12 -64 36 -89c25 -24 54 -36 89 -36s64 12 88 36c25 25 37 54 37 89v39h50v-36c0 -46 -16 -86 -47 -119s-70 -52 -116 -55l-15 -33h23c32 0 55 -29 55 -64c0 -40 -33 -74 -93 -74c-29 0 -59 16 -71 28l-9 10l12 20c21 -20 43 -30 68 -30
c33 0 50 21 50 46c0 19 -15 39 -38 39h-48l31 59c-43 5 -80 24 -109 57s-43 71 -43 116v458c0 49 17 90 51 124s75 51 124 51s90 -17 124 -51s51 -75 51 -124v-36h-50v39c0 35 -12 64 -37 88c-24 25 -53 37 -88 37s-64 -12 -89 -37c-24 -24 -36 -53 -36 -88z" />
    <glyph glyph-name="Egrave" unicode="&#xc8;" horiz-adv-x="420" 
d="M361 0h-286v800h286v-47h-236v-454h186v-48h-186v-204h236v-47zM144 973l161 -57l-13 -36l-162 51z" />
    <glyph glyph-name="Eacute" unicode="&#xc9;" horiz-adv-x="420" 
d="M361 0h-286v800h286v-47h-236v-454h186v-48h-186v-204h236v-47zM297 931l-162 -51l-13 36l161 57z" />
    <glyph glyph-name="Ecircumflex" unicode="&#xca;" horiz-adv-x="420" 
d="M232 1002l94 -87l-30 -33l-75 72l-75 -72l-30 33l94 87h22zM361 0h-286v800h286v-47h-236v-454h186v-48h-186v-204h236v-47z" />
    <glyph glyph-name="Edieresis" unicode="&#xcb;" horiz-adv-x="420" 
d="M361 0h-286v800h286v-47h-236v-454h186v-48h-186v-204h236v-47zM113 906c-24 24 15 63 37 37c26 -22 -13 -61 -37 -37zM283 906c-24 24 15 63 37 37c26 -22 -13 -61 -37 -37z" />
    <glyph glyph-name="Igrave" unicode="&#xcc;" horiz-adv-x="213" 
d="M-20 973l161 -57l-13 -36l-162 51zM131 0h-50v800h50v-800z" />
    <glyph glyph-name="Iacute" unicode="&#xcd;" horiz-adv-x="213" 
d="M247 931l-162 -51l-13 36l161 57zM131 0h-50v800h50v-800z" />
    <glyph glyph-name="Icircumflex" unicode="&#xce;" horiz-adv-x="213" 
d="M117 1002l94 -87l-30 -33l-75 72l-75 -72l-30 33l94 87h22zM131 0h-50v800h50v-800z" />
    <glyph glyph-name="Idieresis" unicode="&#xcf;" horiz-adv-x="213" 
d="M2 906c-24 24 15 63 37 37c26 -22 -13 -61 -37 -37zM172 906c-24 24 15 63 37 37c26 -22 -13 -61 -37 -37zM131 0h-50v800h50v-800z" />
    <glyph glyph-name="Eth" unicode="&#xd0;" horiz-adv-x="500" 
d="M75 251h-82v48h82v501h175c49 0 90 -17 124 -51s51 -75 51 -124v-450c0 -49 -17 -90 -51 -124s-75 -51 -124 -51h-175v251zM250 753h-125v-454h82v-48h-82v-204h125c35 0 64 12 88 36c25 25 37 54 37 89v456c0 35 -12 64 -37 88c-24 25 -53 37 -88 37z" />
    <glyph glyph-name="Ntilde" unicode="&#xd1;" horiz-adv-x="525" 
d="M161 900l-6 -2l-17 35l5 3c23 13 47 20 73 20c11 0 27 -4 46 -12s34 -12 45 -12c29 0 56 14 56 15l5 3l18 -36l-5 -2c-24 -14 -49 -21 -76 -21c-11 0 -26 4 -45 12s-33 12 -43 12c-29 0 -56 -14 -56 -15zM450 0h-50l-275 666v-666h-50v800h50l275 -667v667h50v-800z" />
    <glyph glyph-name="Ograve" unicode="&#xd2;" horiz-adv-x="500" 
d="M75 171v458c0 49 17 90 51 124s75 51 124 51s90 -17 124 -51s51 -75 51 -124v-458c0 -49 -17 -90 -51 -124s-75 -51 -124 -51s-90 17 -124 51s-51 75 -51 124zM125 632v-464c0 -35 12 -64 36 -89c25 -24 54 -36 89 -36s64 12 88 36c25 25 37 54 37 89v464
c0 35 -12 64 -37 88c-24 25 -53 37 -88 37s-64 -12 -89 -37c-24 -24 -36 -53 -36 -88zM152 973l161 -57l-13 -36l-162 51z" />
    <glyph glyph-name="Oacute" unicode="&#xd3;" horiz-adv-x="500" 
d="M75 171v458c0 49 17 90 51 124s75 51 124 51s90 -17 124 -51s51 -75 51 -124v-458c0 -49 -17 -90 -51 -124s-75 -51 -124 -51s-90 17 -124 51s-51 75 -51 124zM125 632v-464c0 -35 12 -64 36 -89c25 -24 54 -36 89 -36s64 12 88 36c25 25 37 54 37 89v464
c0 35 -12 64 -37 88c-24 25 -53 37 -88 37s-64 -12 -89 -37c-24 -24 -36 -53 -36 -88zM363 931l-162 -51l-13 36l161 57z" />
    <glyph glyph-name="Ocircumflex" unicode="&#xd4;" horiz-adv-x="500" 
d="M261 1002l94 -87l-30 -33l-75 72l-75 -72l-30 33l94 87h22zM75 171v458c0 49 17 90 51 124s75 51 124 51s90 -17 124 -51s51 -75 51 -124v-458c0 -49 -17 -90 -51 -124s-75 -51 -124 -51s-90 17 -124 51s-51 75 -51 124zM125 632v-464c0 -35 12 -64 36 -89
c25 -24 54 -36 89 -36s64 12 88 36c25 25 37 54 37 89v464c0 35 -12 64 -37 88c-24 25 -53 37 -88 37s-64 -12 -89 -37c-24 -24 -36 -53 -36 -88z" />
    <glyph glyph-name="Otilde" unicode="&#xd5;" horiz-adv-x="500" 
d="M149 900l-6 -2l-17 35l5 3c23 13 47 20 73 20c11 0 27 -4 46 -12s34 -12 45 -12c29 0 56 14 56 15l5 3l18 -36l-5 -2c-24 -14 -49 -21 -76 -21c-11 0 -26 4 -45 12s-33 12 -43 12c-29 0 -56 -14 -56 -15zM75 171v458c0 49 17 90 51 124s75 51 124 51s90 -17 124 -51
s51 -75 51 -124v-458c0 -49 -17 -90 -51 -124s-75 -51 -124 -51s-90 17 -124 51s-51 75 -51 124zM125 632v-464c0 -35 12 -64 36 -89c25 -24 54 -36 89 -36s64 12 88 36c25 25 37 54 37 89v464c0 35 -12 64 -37 88c-24 25 -53 37 -88 37s-64 -12 -89 -37
c-24 -24 -36 -53 -36 -88z" />
    <glyph glyph-name="Odieresis" unicode="&#xd6;" horiz-adv-x="500" 
d="M75 171v458c0 49 17 90 51 124s75 51 124 51s90 -17 124 -51s51 -75 51 -124v-458c0 -49 -17 -90 -51 -124s-75 -51 -124 -51s-90 17 -124 51s-51 75 -51 124zM125 632v-464c0 -35 12 -64 36 -89c25 -24 54 -36 89 -36s64 12 88 36c25 25 37 54 37 89v464
c0 35 -12 64 -37 88c-24 25 -53 37 -88 37s-64 -12 -89 -37c-24 -24 -36 -53 -36 -88zM146 906c-24 24 15 63 37 37c26 -22 -13 -61 -37 -37zM316 906c-24 24 15 63 37 37c26 -22 -13 -61 -37 -37z" />
    <glyph glyph-name="multiply" unicode="&#xd7;" horiz-adv-x="548" 
d="M274 338l-181 -204l-38 32l186 209l-186 209l38 32l181 -204l181 204l38 -32l-186 -209l186 -209l-38 -32z" />
    <glyph glyph-name="Oslash" unicode="&#xd8;" horiz-adv-x="500" 
d="M75 171v458c0 49 17 90 51 124s75 51 124 51c44 0 83 -15 116 -45l20 50l42 -18l-28 -71c17 -28 25 -58 25 -91v-458c0 -49 -17 -90 -51 -124s-75 -51 -124 -51c-44 0 -83 15 -117 44l-19 -49l-42 18l28 71c-17 28 -25 58 -25 91zM375 168v464c0 5 -1 12 -2 20l-221 -563
c25 -31 58 -46 98 -46c35 0 64 12 88 36c25 25 37 54 37 89zM125 632v-464c0 -9 0 -16 1 -20l221 562c-25 31 -57 47 -97 47c-35 0 -64 -12 -89 -37c-24 -24 -36 -53 -36 -88z" />
    <glyph glyph-name="Ugrave" unicode="&#xd9;" horiz-adv-x="500" 
d="M125 800v-632c0 -35 12 -64 36 -89c25 -24 54 -36 89 -36s64 12 88 36c25 25 37 54 37 89v632h50v-629c0 -49 -17 -90 -51 -124s-75 -51 -124 -51s-90 17 -124 51s-51 75 -51 124v629h50zM151 973l161 -57l-13 -36l-162 51z" />
    <glyph glyph-name="Uacute" unicode="&#xda;" horiz-adv-x="500" 
d="M125 800v-632c0 -35 12 -64 36 -89c25 -24 54 -36 89 -36s64 12 88 36c25 25 37 54 37 89v632h50v-629c0 -49 -17 -90 -51 -124s-75 -51 -124 -51s-90 17 -124 51s-51 75 -51 124v629h50zM363 931l-162 -51l-13 36l161 57z" />
    <glyph glyph-name="Ucircumflex" unicode="&#xdb;" horiz-adv-x="500" 
d="M261 1002l94 -87l-30 -33l-75 72l-75 -72l-30 33l94 87h22zM125 800v-632c0 -35 12 -64 36 -89c25 -24 54 -36 89 -36s64 12 88 36c25 25 37 54 37 89v632h50v-629c0 -49 -17 -90 -51 -124s-75 -51 -124 -51s-90 17 -124 51s-51 75 -51 124v629h50z" />
    <glyph glyph-name="Udieresis" unicode="&#xdc;" horiz-adv-x="500" 
d="M125 800v-632c0 -35 12 -64 36 -89c25 -24 54 -36 89 -36s64 12 88 36c25 25 37 54 37 89v632h50v-629c0 -49 -17 -90 -51 -124s-75 -51 -124 -51s-90 17 -124 51s-51 75 -51 124v629h50zM146 906c-24 24 15 63 37 37c26 -22 -13 -61 -37 -37zM316 906
c-24 24 15 63 37 37c26 -22 -13 -61 -37 -37z" />
    <glyph glyph-name="Yacute" unicode="&#xdd;" horiz-adv-x="470" 
d="M260 0h-50v251l-154 549h52l127 -460l127 460h52l-154 -549v-251zM362 931l-162 -51l-13 36l161 57z" />
    <glyph glyph-name="Thorn" unicode="&#xde;" horiz-adv-x="500" 
d="M125 0h-50v800h50v-136h125c49 0 90 -17 124 -51s51 -75 51 -124v-178c0 -49 -17 -90 -51 -124s-75 -51 -124 -51h-125v-136zM250 617h-125v-434h125c35 0 64 12 88 36c25 25 37 54 37 89v184c0 35 -12 64 -37 88c-24 25 -53 37 -88 37z" />
    <glyph glyph-name="agrave" unicode="&#xe0;" horiz-adv-x="391" 
d="M170 700h50l115 -600h-47l-25 130h-136l-24 -130h-47zM254 277l-59 311l-59 -311h118zM81 873l161 -57l-13 -36l-162 51z" />
    <glyph glyph-name="aacute" unicode="&#xe1;" horiz-adv-x="391" 
d="M170 700h50l115 -600h-47l-25 130h-136l-24 -130h-47zM254 277l-59 311l-59 -311h118zM324 831l-162 -51l-13 36l161 57z" />
    <glyph glyph-name="acircumflex" unicode="&#xe2;" horiz-adv-x="391" 
d="M170 700h50l115 -600h-47l-25 130h-136l-24 -130h-47zM254 277l-59 311l-59 -311h118zM206 902l94 -87l-30 -33l-75 72l-75 -72l-30 33l94 87h22z" />
    <glyph glyph-name="atilde" unicode="&#xe3;" horiz-adv-x="391" 
d="M94 800l-6 -2l-17 35l5 3c23 13 47 20 73 20c11 0 27 -4 46 -12s34 -12 45 -12c29 0 56 14 56 15l5 3l18 -36l-5 -2c-24 -14 -49 -21 -76 -21c-11 0 -26 4 -45 12s-33 12 -43 12c-29 0 -56 -14 -56 -15zM170 700h50l115 -600h-47l-25 130h-136l-24 -130h-47zM254 277
l-59 311l-59 -311h118z" />
    <glyph glyph-name="adieresis" unicode="&#xe4;" horiz-adv-x="391" 
d="M170 700h50l115 -600h-47l-25 130h-136l-24 -130h-47zM254 277l-59 311l-59 -311h118zM101 806c-24 24 15 63 37 37c26 -22 -13 -61 -37 -37zM251 806c-24 24 15 63 37 37c26 -22 -13 -61 -37 -37z" />
    <glyph glyph-name="aring" unicode="&#xe5;" horiz-adv-x="391" 
d="M170 700h50l115 -600h-47l-25 130h-136l-24 -130h-47zM126 756c-37 39 -37 100 0 137c39 39 100 39 137 0c39 -37 39 -98 0 -137c-37 -37 -98 -37 -137 0zM254 277l-59 311l-59 -311h118zM155 864c-21 -21 -21 -56 0 -79c23 -21 58 -21 79 0c23 23 23 58 0 79
c-21 23 -56 23 -79 0z" />
    <glyph glyph-name="ae" unicode="&#xe6;" horiz-adv-x="548" 
d="M490 100h-225v130h-132l-31 -130h-46l139 600h295v-47h-175v-309h150v-48h-150v-149h175v-47zM265 653h-31l-90 -376h121v376z" />
    <glyph glyph-name="ccedilla" unicode="&#xe7;" 
d="M125 582v-364c0 -41 34 -75 75 -75s75 34 75 75v53h50v-50c0 -64 -47 -117 -110 -124l-15 -33h23c32 0 55 -29 55 -64c0 -40 -33 -74 -93 -74c-29 0 -59 16 -71 28l-9 10l12 20c21 -20 43 -30 68 -30c33 0 50 21 50 46c0 19 -15 39 -38 39h-48l30 58
c-60 11 -104 63 -104 124v358c0 35 12 64 36 88c25 25 54 37 89 37s64 -12 88 -37c25 -24 37 -53 37 -88v-50h-50v53c0 41 -34 75 -75 75s-75 -34 -75 -75z" />
    <glyph glyph-name="egrave" unicode="&#xe8;" horiz-adv-x="359" 
d="M300 100h-225v600h225v-47h-175v-309h150v-48h-150v-149h175v-47zM113 873l161 -57l-13 -36l-162 51z" />
    <glyph glyph-name="eacute" unicode="&#xe9;" horiz-adv-x="359" 
d="M300 100h-225v600h225v-47h-175v-309h150v-48h-150v-149h175v-47zM287 831l-162 -51l-13 36l161 57z" />
    <glyph glyph-name="ecircumflex" unicode="&#xea;" horiz-adv-x="359" 
d="M197 902l94 -87l-30 -33l-75 72l-75 -72l-30 33l94 87h22zM300 100h-225v600h225v-47h-175v-309h150v-48h-150v-149h175v-47z" />
    <glyph glyph-name="edieresis" unicode="&#xeb;" horiz-adv-x="359" 
d="M300 100h-225v600h225v-47h-175v-309h150v-48h-150v-149h175v-47zM92 806c-24 24 15 63 37 37c26 -22 -13 -61 -37 -37zM242 806c-24 24 15 63 37 37c26 -22 -13 -61 -37 -37z" />
    <glyph glyph-name="igrave" unicode="&#xec;" horiz-adv-x="213" 
d="M-20 873l161 -57l-13 -36l-162 51zM131 100h-50v600h50v-600z" />
    <glyph glyph-name="iacute" unicode="&#xed;" horiz-adv-x="213" 
d="M247 831l-162 -51l-13 36l161 57zM131 100h-50v600h50v-600z" />
    <glyph glyph-name="icircumflex" unicode="&#xee;" horiz-adv-x="213" 
d="M117 902l94 -87l-30 -33l-75 72l-75 -72l-30 33l94 87h22zM131 100h-50v600h50v-600z" />
    <glyph glyph-name="idieresis" unicode="&#xef;" horiz-adv-x="213" 
d="M11 806c-24 24 15 63 37 37c26 -22 -13 -61 -37 -37zM161 806c-24 24 15 63 37 37c26 -22 -13 -61 -37 -37zM131 100h-50v600h50v-600z" />
    <glyph glyph-name="eth" unicode="&#xf0;" 
d="M75 296h-57v48h57v356h125c35 0 64 -12 88 -37c25 -24 37 -53 37 -88v-350c0 -35 -12 -64 -37 -89c-24 -24 -53 -36 -88 -36h-125v196zM200 653h-75v-309h57v-48h-57v-149h75c41 0 75 34 75 75v356c0 41 -34 75 -75 75z" />
    <glyph glyph-name="ntilde" unicode="&#xf1;" horiz-adv-x="425" 
d="M111 800l-6 -2l-17 35l5 3c23 13 47 20 73 20c11 0 27 -4 46 -12s34 -12 45 -12c29 0 56 14 56 15l5 3l18 -36l-5 -2c-24 -14 -49 -21 -76 -21c-11 0 -26 4 -45 12s-33 12 -43 12c-29 0 -56 -14 -56 -15zM350 100h-50l-175 466v-466h-50v600h50l175 -467v467h50v-600z
" />
    <glyph glyph-name="ograve" unicode="&#xf2;" 
d="M75 221v358c0 35 12 64 36 88c25 25 54 37 89 37s64 -12 88 -37c25 -24 37 -53 37 -88v-358c0 -35 -12 -64 -37 -89c-24 -24 -53 -36 -88 -36s-64 12 -89 36c-24 25 -36 54 -36 89zM125 582v-364c0 -41 34 -75 75 -75s75 34 75 75v364c0 41 -34 75 -75 75
s-75 -34 -75 -75zM101 873l161 -57l-13 -36l-162 51z" />
    <glyph glyph-name="oacute" unicode="&#xf3;" 
d="M75 221v358c0 35 12 64 36 88c25 25 54 37 89 37s64 -12 88 -37c25 -24 37 -53 37 -88v-358c0 -35 -12 -64 -37 -89c-24 -24 -53 -36 -88 -36s-64 12 -89 36c-24 25 -36 54 -36 89zM125 582v-364c0 -41 34 -75 75 -75s75 34 75 75v364c0 41 -34 75 -75 75
s-75 -34 -75 -75zM313 831l-162 -51l-13 36l161 57z" />
    <glyph glyph-name="ocircumflex" unicode="&#xf4;" 
d="M211 902l94 -87l-30 -33l-75 72l-75 -72l-30 33l94 87h22zM75 221v358c0 35 12 64 36 88c25 25 54 37 89 37s64 -12 88 -37c25 -24 37 -53 37 -88v-358c0 -35 -12 -64 -37 -89c-24 -24 -53 -36 -88 -36s-64 12 -89 36c-24 25 -36 54 -36 89zM125 582v-364
c0 -41 34 -75 75 -75s75 34 75 75v364c0 41 -34 75 -75 75s-75 -34 -75 -75z" />
    <glyph glyph-name="otilde" unicode="&#xf5;" 
d="M99 800l-6 -2l-17 35l5 3c23 13 47 20 73 20c11 0 27 -4 46 -12s34 -12 45 -12c29 0 56 14 56 15l5 3l18 -36l-5 -2c-24 -14 -49 -21 -76 -21c-11 0 -26 4 -45 12s-33 12 -43 12c-29 0 -56 -14 -56 -15zM75 221v358c0 35 12 64 36 88c25 25 54 37 89 37s64 -12 88 -37
c25 -24 37 -53 37 -88v-358c0 -35 -12 -64 -37 -89c-24 -24 -53 -36 -88 -36s-64 12 -89 36c-24 25 -36 54 -36 89zM125 582v-364c0 -41 34 -75 75 -75s75 34 75 75v364c0 41 -34 75 -75 75s-75 -34 -75 -75z" />
    <glyph glyph-name="odieresis" unicode="&#xf6;" 
d="M75 221v358c0 35 12 64 36 88c25 25 54 37 89 37s64 -12 88 -37c25 -24 37 -53 37 -88v-358c0 -35 -12 -64 -37 -89c-24 -24 -53 -36 -88 -36s-64 12 -89 36c-24 25 -36 54 -36 89zM125 582v-364c0 -41 34 -75 75 -75s75 34 75 75v364c0 41 -34 75 -75 75
s-75 -34 -75 -75zM106 806c-24 24 15 63 37 37c26 -22 -13 -61 -37 -37zM256 806c-24 24 15 63 37 37c26 -22 -13 -61 -37 -37z" />
    <glyph glyph-name="divide" unicode="&#xf7;" horiz-adv-x="450" 
d="M196 126c0 39 58 39 58 0c0 -37 -58 -37 -58 0zM196 576c0 39 58 39 58 0c0 -37 -58 -37 -58 0zM425 326h-400v47h400v-47z" />
    <glyph glyph-name="oslash" unicode="&#xf8;" 
d="M75 221v358c0 35 12 64 36 88c25 25 54 37 89 37c27 0 52 -8 75 -25l11 30l42 -18l-19 -52c11 -19 16 -39 16 -60v-358c0 -35 -12 -64 -37 -89c-24 -24 -53 -36 -88 -36c-29 0 -54 8 -76 25l-10 -30l-42 18l18 51c-10 18 -15 38 -15 61zM200 143c41 0 75 34 75 75v324
l-133 -372c16 -18 35 -27 58 -27zM125 582v-325l132 372c-15 19 -34 28 -57 28c-41 0 -75 -34 -75 -75z" />
    <glyph glyph-name="ugrave" unicode="&#xf9;" 
d="M125 700v-482c0 -41 34 -75 75 -75s75 34 75 75v482h50v-479c0 -35 -12 -64 -37 -89c-24 -24 -53 -36 -88 -36s-64 12 -89 36c-24 25 -36 54 -36 89v479h50zM101 873l161 -57l-13 -36l-162 51z" />
    <glyph glyph-name="uacute" unicode="&#xfa;" 
d="M125 700v-482c0 -41 34 -75 75 -75s75 34 75 75v482h50v-479c0 -35 -12 -64 -37 -89c-24 -24 -53 -36 -88 -36s-64 12 -89 36c-24 25 -36 54 -36 89v479h50zM313 831l-162 -51l-13 36l161 57z" />
    <glyph glyph-name="ucircumflex" unicode="&#xfb;" 
d="M211 902l94 -87l-30 -33l-75 72l-75 -72l-30 33l94 87h22zM125 700v-482c0 -41 34 -75 75 -75s75 34 75 75v482h50v-479c0 -35 -12 -64 -37 -89c-24 -24 -53 -36 -88 -36s-64 12 -89 36c-24 25 -36 54 -36 89v479h50z" />
    <glyph glyph-name="udieresis" unicode="&#xfc;" 
d="M125 700v-482c0 -41 34 -75 75 -75s75 34 75 75v482h50v-479c0 -35 -12 -64 -37 -89c-24 -24 -53 -36 -88 -36s-64 12 -89 36c-24 25 -36 54 -36 89v479h50zM106 806c-24 24 15 63 37 37c26 -22 -13 -61 -37 -37zM256 806c-24 24 15 63 37 37c26 -22 -13 -61 -37 -37z
" />
    <glyph glyph-name="yacute" unicode="&#xfd;" horiz-adv-x="381" 
d="M215 100h-50v196l-109 404h48l86 -324l87 324h48l-110 -404v-196zM317 831l-162 -51l-13 36l161 57z" />
    <glyph glyph-name="thorn" unicode="&#xfe;" 
d="M200 193h-125v507h50v-93h75c35 0 64 -12 88 -37c25 -24 37 -53 37 -88v-164c0 -35 -12 -64 -37 -89c-24 -24 -53 -36 -88 -36zM200 560h-75v-320h75c41 0 75 34 75 75v170c0 41 -34 75 -75 75zM125 100h-50v93h50v-93z" />
    <glyph glyph-name="ydieresis" unicode="&#xff;" horiz-adv-x="381" 
d="M215 100h-50v196l-109 404h48l86 -324l87 324h48l-110 -404v-196zM247 806c-24 24 15 63 37 37c26 -22 -13 -61 -37 -37zM97 806c-24 24 15 63 37 37c26 -22 -13 -61 -37 -37z" />
    <glyph glyph-name="Amacron" unicode="&#x100;" horiz-adv-x="503" 
d="M226 800h50l171 -800h-50l-32 150h-228l-31 -150h-50zM355 197l-104 491l-104 -491h208zM376 903h-250v41h250v-41z" />
    <glyph glyph-name="amacron" unicode="&#x101;" horiz-adv-x="391" 
d="M170 700h50l115 -600h-47l-25 130h-136l-24 -130h-47zM254 277l-59 311l-59 -311h118zM305 803h-220v41h220v-41z" />
    <glyph glyph-name="Abreve" unicode="&#x102;" horiz-adv-x="503" 
d="M226 800h50l171 -800h-50l-32 150h-228l-31 -150h-50zM355 197l-104 491l-104 -491h208zM322 975v14h41v-14c0 -56 -39 -97 -112 -97s-112 41 -112 97v14h41v-14c0 -32 28 -56 71 -56s71 24 71 56z" />
    <glyph glyph-name="abreve" unicode="&#x103;" horiz-adv-x="391" 
d="M170 700h50l115 -600h-47l-25 130h-136l-24 -130h-47zM254 277l-59 311l-59 -311h118zM266 875v14h41v-14c0 -56 -39 -97 -112 -97s-112 41 -112 97v14h41v-14c0 -32 28 -56 71 -56s71 24 71 56z" />
    <glyph glyph-name="Aogonek" unicode="&#x104;" horiz-adv-x="510" 
d="M226 800h50l171 -800h1c-39 -40 -59 -70 -59 -91c0 -19 9 -28 27 -28c11 0 25 8 30 15l5 5l24 -15c-15 -25 -34 -37 -59 -37c-45 0 -68 21 -68 63c0 29 16 60 48 92l-31 146h-228l-31 -150h-50zM355 197l-104 491l-104 -491h208z" />
    <glyph glyph-name="aogonek" unicode="&#x105;" horiz-adv-x="391" 
d="M170 700h50l115 -600h-47l-25 130h-136l-24 -130h-47zM254 277l-59 311l-59 -311h118z" />
    <glyph glyph-name="Cacute" unicode="&#x106;" horiz-adv-x="500" 
d="M125 632v-464c0 -35 12 -64 36 -89c25 -24 54 -36 89 -36s64 12 88 36c25 25 37 54 37 89v39h50v-36c0 -49 -17 -90 -51 -124s-75 -51 -124 -51s-90 17 -124 51s-51 75 -51 124v458c0 49 17 90 51 124s75 51 124 51s90 -17 124 -51s51 -75 51 -124v-36h-50v39
c0 35 -12 64 -37 88c-24 25 -53 37 -88 37s-64 -12 -89 -37c-24 -24 -36 -53 -36 -88zM363 931l-162 -51l-13 36l161 57z" />
    <glyph glyph-name="cacute" unicode="&#x107;" 
d="M125 582v-364c0 -41 34 -75 75 -75s75 34 75 75v53h50v-50c0 -35 -12 -64 -37 -89c-24 -24 -53 -36 -88 -36s-64 12 -89 36c-24 25 -36 54 -36 89v358c0 35 12 64 36 88c25 25 54 37 89 37s64 -12 88 -37c25 -24 37 -53 37 -88v-50h-50v53c0 41 -34 75 -75 75
s-75 -34 -75 -75zM313 831l-162 -51l-13 36l161 57z" />
    <glyph glyph-name="Ccircumflex" unicode="&#x108;" horiz-adv-x="500" 
d="M125 632v-464c0 -35 12 -64 36 -89c25 -24 54 -36 89 -36s64 12 88 36c25 25 37 54 37 89v39h50v-36c0 -49 -17 -90 -51 -124s-75 -51 -124 -51s-90 17 -124 51s-51 75 -51 124v458c0 49 17 90 51 124s75 51 124 51s90 -17 124 -51s51 -75 51 -124v-36h-50v39
c0 35 -12 64 -37 88c-24 25 -53 37 -88 37s-64 -12 -89 -37c-24 -24 -36 -53 -36 -88zM261 1002l94 -87l-30 -33l-75 72l-75 -72l-30 33l94 87h22z" />
    <glyph glyph-name="ccircumflex" unicode="&#x109;" 
d="M211 902l94 -87l-30 -33l-75 72l-75 -72l-30 33l94 87h22zM125 582v-364c0 -41 34 -75 75 -75s75 34 75 75v53h50v-50c0 -35 -12 -64 -37 -89c-24 -24 -53 -36 -88 -36s-64 12 -89 36c-24 25 -36 54 -36 89v358c0 35 12 64 36 88c25 25 54 37 89 37s64 -12 88 -37
c25 -24 37 -53 37 -88v-50h-50v53c0 41 -34 75 -75 75s-75 -34 -75 -75z" />
    <glyph glyph-name="Cdotaccent" unicode="&#x10a;" horiz-adv-x="500" 
d="M125 632v-464c0 -35 12 -64 36 -89c25 -24 54 -36 89 -36s64 12 88 36c25 25 37 54 37 89v39h50v-36c0 -49 -17 -90 -51 -124s-75 -51 -124 -51s-90 17 -124 51s-51 75 -51 124v458c0 49 17 90 51 124s75 51 124 51s90 -17 124 -51s51 -75 51 -124v-36h-50v39
c0 35 -12 64 -37 88c-24 25 -53 37 -88 37s-64 -12 -89 -37c-24 -24 -36 -53 -36 -88zM229 904c-25 28 16 69 41 41c28 -25 -13 -66 -41 -41z" />
    <glyph glyph-name="cdotaccent" unicode="&#x10b;" 
d="M125 582v-364c0 -41 34 -75 75 -75s75 34 75 75v53h50v-50c0 -35 -12 -64 -37 -89c-24 -24 -53 -36 -88 -36s-64 12 -89 36c-24 25 -36 54 -36 89v358c0 35 12 64 36 88c25 25 54 37 89 37s64 -12 88 -37c25 -24 37 -53 37 -88v-50h-50v53c0 41 -34 75 -75 75
s-75 -34 -75 -75zM179 804c-25 28 16 69 41 41c28 -25 -13 -66 -41 -41z" />
    <glyph glyph-name="Ccaron" unicode="&#x10c;" horiz-adv-x="500" 
d="M125 632v-464c0 -35 12 -64 36 -89c25 -24 54 -36 89 -36s64 12 88 36c25 25 37 54 37 89v39h50v-36c0 -49 -17 -90 -51 -124s-75 -51 -124 -51s-90 17 -124 51s-51 75 -51 124v458c0 49 17 90 51 124s75 51 124 51s90 -17 124 -51s51 -75 51 -124v-36h-50v39
c0 35 -12 64 -37 88c-24 25 -53 37 -88 37s-64 -12 -89 -37c-24 -24 -36 -53 -36 -88zM239 882l-94 86l30 34l75 -72l75 72l30 -34l-94 -86h-22z" />
    <glyph glyph-name="ccaron" unicode="&#x10d;" 
d="M189 782l-94 86l30 34l75 -72l75 72l30 -34l-94 -86h-22zM125 582v-364c0 -41 34 -75 75 -75s75 34 75 75v53h50v-50c0 -35 -12 -64 -37 -89c-24 -24 -53 -36 -88 -36s-64 12 -89 36c-24 25 -36 54 -36 89v358c0 35 12 64 36 88c25 25 54 37 89 37s64 -12 88 -37
c25 -24 37 -53 37 -88v-50h-50v53c0 41 -34 75 -75 75s-75 -34 -75 -75z" />
    <glyph glyph-name="Dcaron" unicode="&#x10e;" horiz-adv-x="500" 
d="M224 882l-94 86l30 34l75 -72l75 72l30 -34l-94 -86h-22zM250 0h-175v800h175c49 0 90 -17 124 -51s51 -75 51 -124v-450c0 -49 -17 -90 -51 -124s-75 -51 -124 -51zM250 753h-125v-706h125c35 0 64 12 88 36c25 25 37 54 37 89v456c0 35 -12 64 -37 88
c-24 25 -53 37 -88 37z" />
    <glyph glyph-name="dcaron" unicode="&#x10f;" 
d="M178 782l-94 86l30 34l75 -72l75 72l30 -34l-94 -86h-22zM200 100h-125v600h125c35 0 64 -12 88 -37c25 -24 37 -53 37 -88v-350c0 -35 -12 -64 -37 -89c-24 -24 -53 -36 -88 -36zM200 653h-75v-506h75c41 0 75 34 75 75v356c0 41 -34 75 -75 75z" />
    <glyph glyph-name="Dcroat" unicode="&#x110;" horiz-adv-x="500" 
d="M75 251h-82v48h82v501h175c49 0 90 -17 124 -51s51 -75 51 -124v-450c0 -49 -17 -90 -51 -124s-75 -51 -124 -51h-175v251zM250 753h-125v-454h82v-48h-82v-204h125c35 0 64 12 88 36c25 25 37 54 37 89v456c0 35 -12 64 -37 88c-24 25 -53 37 -88 37z" />
    <glyph glyph-name="dslash" unicode="&#x111;" horiz-adv-x="405" 
d="M80 296h-75v48h75v356h125c35 0 64 -12 88 -37c25 -24 37 -53 37 -88v-350c0 -35 -12 -64 -37 -89c-24 -24 -53 -36 -88 -36h-125v196zM205 653h-75v-309h75v-48h-75v-149h75c41 0 75 34 75 75v356c0 41 -34 75 -75 75z" />
    <glyph glyph-name="Emacron" unicode="&#x112;" horiz-adv-x="420" 
d="M361 0h-286v800h286v-47h-236v-454h186v-48h-186v-204h236v-47zM339 903h-250v41h250v-41z" />
    <glyph glyph-name="emacron" unicode="&#x113;" horiz-adv-x="359" 
d="M300 100h-225v600h225v-47h-175v-309h150v-48h-150v-149h175v-47zM296 803h-220v41h220v-41z" />
    <glyph glyph-name="Ebreve" unicode="&#x114;" horiz-adv-x="420" 
d="M361 0h-286v800h286v-47h-236v-454h186v-48h-186v-204h236v-47zM288 975v14h41v-14c0 -56 -39 -97 -112 -97s-112 41 -112 97v14h41v-14c0 -32 28 -56 71 -56s71 24 71 56z" />
    <glyph glyph-name="ebreve" unicode="&#x115;" horiz-adv-x="359" 
d="M300 100h-225v600h225v-47h-175v-309h150v-48h-150v-149h175v-47zM259 875v14h41v-14c0 -56 -39 -97 -112 -97s-112 41 -112 97v14h41v-14c0 -32 28 -56 71 -56s71 24 71 56z" />
    <glyph glyph-name="Edotaccent" unicode="&#x116;" horiz-adv-x="420" 
d="M361 0h-286v800h286v-47h-236v-454h186v-48h-186v-204h236v-47zM200 904c-25 28 16 69 41 41c28 -25 -13 -66 -41 -41z" />
    <glyph glyph-name="edotaccent" unicode="&#x117;" horiz-adv-x="359" 
d="M300 100h-225v600h225v-47h-175v-309h150v-48h-150v-149h175v-47zM169 804c-25 28 16 69 41 41c28 -25 -13 -66 -41 -41z" />
    <glyph glyph-name="Eogonek" unicode="&#x118;" horiz-adv-x="420" 
d="M306 0h-231v800h286v-47h-236v-454h186v-48h-186v-204h236l1 -47c-39 -40 -59 -70 -59 -91c0 -19 9 -28 27 -28c11 0 25 8 30 15l5 5l24 -15c-15 -25 -34 -37 -59 -37c-45 0 -68 21 -68 63c0 27 15 57 44 88z" />
    <glyph glyph-name="eogonek" unicode="&#x119;" horiz-adv-x="359" 
d="M244 100h-169v600h225v-47h-175v-309h150v-48h-150v-149h175v-47c-39 -40 -59 -70 -59 -91c0 -19 9 -28 27 -28c11 0 25 8 30 15l5 5l24 -15c-15 -25 -34 -37 -59 -37c-45 0 -68 21 -68 63c0 26 15 55 44 88z" />
    <glyph glyph-name="Ecaron" unicode="&#x11a;" horiz-adv-x="420" 
d="M210 882l-94 86l30 34l75 -72l75 72l30 -34l-94 -86h-22zM361 0h-286v800h286v-47h-236v-454h186v-48h-186v-204h236v-47z" />
    <glyph glyph-name="ecaron" unicode="&#x11b;" horiz-adv-x="359" 
d="M179 782l-94 86l30 34l75 -72l75 72l30 -34l-94 -86h-22zM300 100h-225v600h225v-47h-175v-309h150v-48h-150v-149h175v-47z" />
    <glyph glyph-name="Gcircumflex" unicode="&#x11c;" horiz-adv-x="500" 
d="M125 632v-464c0 -35 12 -64 36 -89c25 -24 54 -36 89 -36s64 12 88 36c25 25 37 54 37 89v83h-125v48h175v-128c0 -49 -17 -90 -51 -124s-75 -51 -124 -51s-90 17 -124 51s-51 75 -51 124v458c0 49 17 90 51 124s75 51 124 51s90 -17 124 -51s51 -75 51 -124v-36h-50v39
c0 35 -12 64 -37 88c-24 25 -53 37 -88 37s-64 -12 -89 -37c-24 -24 -36 -53 -36 -88zM261 1002l94 -87l-30 -33l-75 72l-75 -72l-30 33l94 87h22z" />
    <glyph glyph-name="gcircumflex" unicode="&#x11d;" 
d="M125 582v-364c0 -41 34 -75 75 -75s75 34 75 75v80h-75v47h125v-124c0 -35 -12 -64 -37 -89c-24 -24 -53 -36 -88 -36s-64 12 -89 36c-24 25 -36 54 -36 89v358c0 35 12 64 36 88c25 25 54 37 89 37s64 -12 88 -37c25 -24 37 -53 37 -88v-50h-50v53c0 41 -34 75 -75 75
s-75 -34 -75 -75zM211 902l94 -87l-30 -33l-75 72l-75 -72l-30 33l94 87h22z" />
    <glyph glyph-name="Gbreve" unicode="&#x11e;" horiz-adv-x="500" 
d="M125 632v-464c0 -35 12 -64 36 -89c25 -24 54 -36 89 -36s64 12 88 36c25 25 37 54 37 89v83h-125v48h175v-128c0 -49 -17 -90 -51 -124s-75 -51 -124 -51s-90 17 -124 51s-51 75 -51 124v458c0 49 17 90 51 124s75 51 124 51s90 -17 124 -51s51 -75 51 -124v-36h-50v39
c0 35 -12 64 -37 88c-24 25 -53 37 -88 37s-64 -12 -89 -37c-24 -24 -36 -53 -36 -88zM250 878v41c43 0 71 24 71 56v14h41v-14c0 -56 -39 -97 -112 -97zM250 919v-41c-73 0 -112 41 -112 97v14h41v-14c0 -32 28 -56 71 -56z" />
    <glyph glyph-name="gbreve" unicode="&#x11f;" 
d="M125 582v-364c0 -41 34 -75 75 -75s75 34 75 75v80h-75v47h125v-124c0 -35 -12 -64 -37 -89c-24 -24 -53 -36 -88 -36s-64 12 -89 36c-24 25 -36 54 -36 89v358c0 35 12 64 36 88c25 25 54 37 89 37s64 -12 88 -37c25 -24 37 -53 37 -88v-50h-50v53c0 41 -34 75 -75 75
s-75 -34 -75 -75zM271 875v14h41v-14c0 -56 -39 -97 -112 -97s-112 41 -112 97v14h41v-14c0 -32 28 -56 71 -56s71 24 71 56z" />
    <glyph glyph-name="Gdotaccent" unicode="&#x120;" horiz-adv-x="500" 
d="M125 632v-464c0 -35 12 -64 36 -89c25 -24 54 -36 89 -36s64 12 88 36c25 25 37 54 37 89v83h-125v48h175v-128c0 -49 -17 -90 -51 -124s-75 -51 -124 -51s-90 17 -124 51s-51 75 -51 124v458c0 49 17 90 51 124s75 51 124 51s90 -17 124 -51s51 -75 51 -124v-36h-50v39
c0 35 -12 64 -37 88c-24 25 -53 37 -88 37s-64 -12 -89 -37c-24 -24 -36 -53 -36 -88zM229 904c-25 28 16 69 41 41c28 -25 -13 -66 -41 -41z" />
    <glyph glyph-name="gdotaccent" unicode="&#x121;" 
d="M125 582v-364c0 -41 34 -75 75 -75s75 34 75 75v80h-75v47h125v-124c0 -35 -12 -64 -37 -89c-24 -24 -53 -36 -88 -36s-64 12 -89 36c-24 25 -36 54 -36 89v358c0 35 12 64 36 88c25 25 54 37 89 37s64 -12 88 -37c25 -24 37 -53 37 -88v-50h-50v53c0 41 -34 75 -75 75
s-75 -34 -75 -75zM179 804c-25 28 16 69 41 41c28 -25 -13 -66 -41 -41z" />
    <glyph glyph-name="Gcommaaccent" unicode="&#x122;" horiz-adv-x="500" 
d="M125 632v-464c0 -35 12 -64 36 -89c25 -24 54 -36 89 -36s64 12 88 36c25 25 37 54 37 89v83h-125v48h175v-128c0 -49 -17 -90 -51 -124s-75 -51 -124 -51s-90 17 -124 51s-51 75 -51 124v458c0 49 17 90 51 124s75 51 124 51s90 -17 124 -51s51 -75 51 -124v-36h-50v39
c0 35 -12 64 -37 88c-24 25 -53 37 -88 37s-64 -12 -89 -37c-24 -24 -36 -53 -36 -88zM225 -197v147h50v-53c0 -17 -6 -54 -11 -77l-3 -17h-36z" />
    <glyph glyph-name="gcommaaccent" unicode="&#x123;" 
d="M125 582v-364c0 -41 34 -75 75 -75s75 34 75 75v80h-75v47h125v-124c0 -35 -12 -64 -37 -89c-24 -24 -53 -36 -88 -36s-64 12 -89 36c-24 25 -36 54 -36 89v358c0 35 12 64 36 88c25 25 54 37 89 37s64 -12 88 -37c25 -24 37 -53 37 -88v-50h-50v53c0 41 -34 75 -75 75
s-75 -34 -75 -75zM175 -97v147h50v-53c0 -17 -6 -54 -11 -77l-3 -17h-36z" />
    <glyph glyph-name="Hcircumflex" unicode="&#x124;" horiz-adv-x="500" 
d="M261 1002l94 -87l-30 -33l-75 72l-75 -72l-30 33l94 87h22zM425 0h-50v251h-250v-251h-50v800h50v-501h250v501h50v-800z" />
    <glyph glyph-name="hcircumflex" unicode="&#x125;" 
d="M211 902l94 -87l-30 -33l-75 72l-75 -72l-30 33l94 87h22zM325 100h-50v196h-150v-196h-50v600h50v-356h150v356h50v-600z" />
    <glyph glyph-name="Hbar" unicode="&#x126;" horiz-adv-x="500" 
d="M75 507h-46v42h46v251h50v-251h250v251h50v-251h46v-42h-46v-507h-50v251h-250v-251h-50v507zM375 507h-250v-208h250v208z" />
    <glyph glyph-name="hbar" unicode="&#x127;" 
d="M75 562h-39v42h39v96h50v-96h150v96h50v-96h39v-42h-39v-462h-50v196h-150v-196h-50v462zM275 562h-150v-218h150v218z" />
    <glyph glyph-name="Itilde" unicode="&#x128;" horiz-adv-x="213" 
d="M5 900l-6 -2l-17 35l5 3c23 13 47 20 73 20c11 0 27 -4 46 -12s34 -12 45 -12c29 0 56 14 56 15l5 3l18 -36l-5 -2c-24 -14 -49 -21 -76 -21c-11 0 -26 4 -45 12s-33 12 -43 12c-29 0 -56 -14 -56 -15zM131 0h-50v800h50v-800z" />
    <glyph glyph-name="itilde" unicode="&#x129;" horiz-adv-x="213" 
d="M5 800l-6 -2l-17 35l5 3c23 13 47 20 73 20c11 0 27 -4 46 -12s34 -12 45 -12c29 0 56 14 56 15l5 3l18 -36l-5 -2c-24 -14 -49 -21 -76 -21c-11 0 -26 4 -45 12s-33 12 -43 12c-29 0 -56 -14 -56 -15zM131 100h-50v600h50v-600z" />
    <glyph glyph-name="Imacron" unicode="&#x12a;" horiz-adv-x="213" 
d="M131 0h-50v800h50v-800zM216 903h-220v41h220v-41z" />
    <glyph glyph-name="imacron" unicode="&#x12b;" horiz-adv-x="213" 
d="M131 100h-50v600h50v-600zM216 803h-220v41h220v-41z" />
    <glyph glyph-name="Ibreve" unicode="&#x12c;" horiz-adv-x="213" 
d="M131 0h-50v800h50v-800zM177 975v14h41v-14c0 -56 -39 -97 -112 -97s-112 41 -112 97v14h41v-14c0 -32 28 -56 71 -56s71 24 71 56z" />
    <glyph glyph-name="ibreve" unicode="&#x12d;" horiz-adv-x="213" 
d="M131 100h-50v600h50v-600zM177 875v14h41v-14c0 -56 -39 -97 -112 -97s-112 41 -112 97v14h41v-14c0 -32 28 -56 71 -56s71 24 71 56z" />
    <glyph glyph-name="Iogonek" unicode="&#x12e;" horiz-adv-x="213" 
d="M81 800h50v-800h1c-39 -40 -59 -70 -59 -91c0 -19 9 -28 27 -28c11 0 25 8 30 15l5 5l24 -15c-15 -25 -34 -37 -59 -37c-45 0 -68 21 -68 63c0 29 16 60 49 93v795z" />
    <glyph glyph-name="iogonek" unicode="&#x12f;" horiz-adv-x="213" 
d="M81 700h50v-600h1c-39 -40 -59 -70 -59 -91c0 -19 9 -28 27 -28c11 0 25 8 30 15l5 5l24 -15c-15 -25 -34 -37 -59 -37c-45 0 -68 21 -68 63c0 29 16 60 49 93v595z" />
    <glyph glyph-name="Idot" unicode="&#x130;" horiz-adv-x="213" 
d="M85 904c-25 28 16 69 41 41c28 -25 -13 -66 -41 -41zM131 0h-50v800h50v-800z" />
    <glyph glyph-name="dotlessi" unicode="&#x131;" horiz-adv-x="213" 
d="M131 100h-50v600h50v-600z" />
    <glyph glyph-name="Jcircumflex" unicode="&#x134;" horiz-adv-x="200" 
d="M111 1002l94 -87l-30 -33l-75 72l-75 -72l-30 33l94 87h22zM0 -250h-46v47h46c41 0 75 34 75 75v928h50v-925c0 -35 -12 -64 -37 -88c-24 -25 -53 -37 -88 -37z" />
    <glyph glyph-name="jcircumflex" unicode="&#x135;" horiz-adv-x="200" 
d="M111 902l94 -87l-30 -33l-75 72l-75 -72l-30 33l94 87h22zM0 -54h-21v47h21c41 0 75 34 75 75v632h50v-629c0 -35 -12 -64 -37 -88c-24 -25 -53 -37 -88 -37z" />
    <glyph glyph-name="Kcommaaccent" unicode="&#x136;" horiz-adv-x="500" 
d="M125 0h-50v800h50v-446l245 446h56l-178 -325l181 -475h-53l-160 418l-91 -167v-251zM220 -197v147h50v-53c0 -17 -6 -54 -10 -77l-4 -17h-36z" />
    <glyph glyph-name="kcommaaccent" unicode="&#x137;" 
d="M125 100h-50v600h50v-297l149 297h55l-122 -241l122 -359h-52l-101 296l-51 -100v-196zM175 -97v147h50v-53c0 -17 -6 -54 -11 -77l-3 -17h-36z" />
    <glyph glyph-name="kgreenlandic" unicode="&#x138;" 
d="M125 100h-50v600h50v-297l149 297h55l-122 -241l122 -359h-52l-101 296l-51 -100v-196z" />
    <glyph glyph-name="Lacute" unicode="&#x139;" horiz-adv-x="421" 
d="M255 931l-162 -51l-13 36l161 57zM372 0h-297v800h50v-753h247v-47z" />
    <glyph glyph-name="lacute" unicode="&#x13a;" horiz-adv-x="321" 
d="M255 831l-162 -51l-13 36l161 57zM275 100h-200v600h50v-553h150v-47z" />
    <glyph glyph-name="Lcommaaccent" unicode="&#x13b;" horiz-adv-x="421" 
d="M372 0h-297v800h50v-753h247v-47zM210 -197v147h50v-53c0 -17 -6 -54 -10 -77l-4 -17h-36z" />
    <glyph glyph-name="lcommaaccent" unicode="&#x13c;" horiz-adv-x="321" 
d="M275 100h-200v600h50v-553h150v-47zM152 -97v147h50v-53c0 -17 -6 -54 -10 -77l-4 -17h-36z" />
    <glyph glyph-name="Lcaron" unicode="&#x13d;" horiz-adv-x="421" 
d="M89 882l-94 86l30 34l75 -72l75 72l30 -34l-94 -86h-22zM372 0h-297v800h50v-753h247v-47z" />
    <glyph glyph-name="lcaron" unicode="&#x13e;" horiz-adv-x="321" 
d="M89 782l-94 86l30 34l75 -72l75 72l30 -34l-94 -86h-22zM275 100h-200v600h50v-553h150v-47z" />
    <glyph glyph-name="Ldot" unicode="&#x13f;" horiz-adv-x="421" 
d="M289 300c0 39 58 39 58 0c0 -37 -58 -37 -58 0zM372 0h-297v800h50v-753h247v-47z" />
    <glyph glyph-name="ldot" unicode="&#x140;" horiz-adv-x="321" 
d="M275 100h-200v600h50v-553h150v-47zM247 379c-25 28 16 69 41 41c28 -25 -13 -66 -41 -41z" />
    <glyph glyph-name="Lslash" unicode="&#x141;" horiz-adv-x="421" 
d="M75 239l-89 -36l-18 45l107 43v509h50v-489l89 36l18 -45l-107 -43v-212h247v-47h-297v239z" />
    <glyph glyph-name="lslash" unicode="&#x142;" horiz-adv-x="321" 
d="M75 284l-65 -26l-18 44l83 33v365h50v-345l65 27l18 -44l-83 -34v-157h150v-47h-200v184z" />
    <glyph glyph-name="Nacute" unicode="&#x143;" horiz-adv-x="525" 
d="M450 0h-50l-275 666v-666h-50v800h50l275 -667v667h50v-800zM363 931l-162 -51l-13 36l161 57z" />
    <glyph glyph-name="nacute" unicode="&#x144;" horiz-adv-x="425" 
d="M350 100h-50l-175 466v-466h-50v600h50l175 -467v467h50v-600zM313 831l-162 -51l-13 36l161 57z" />
    <glyph glyph-name="Ncommaaccent" unicode="&#x145;" horiz-adv-x="525" 
d="M450 0h-50l-275 666v-666h-50v800h50l275 -667v667h50v-800zM235 -197v147h50v-53c0 -17 -6 -54 -11 -77l-3 -17h-36z" />
    <glyph glyph-name="ncommaaccent" unicode="&#x146;" horiz-adv-x="425" 
d="M350 100h-50l-175 466v-466h-50v600h50l175 -467v467h50v-600zM185 -97v147h50v-53c0 -17 -6 -54 -11 -77l-3 -17h-36z" />
    <glyph glyph-name="Ncaron" unicode="&#x147;" horiz-adv-x="525" 
d="M251 882l-94 86l30 34l75 -72l75 72l30 -34l-94 -86h-22zM450 0h-50l-275 666v-666h-50v800h50l275 -667v667h50v-800z" />
    <glyph glyph-name="ncaron" unicode="&#x148;" horiz-adv-x="425" 
d="M201 782l-94 86l30 34l75 -72l75 72l30 -34l-94 -86h-22zM350 100h-50l-175 466v-466h-50v600h50l175 -467v467h50v-600z" />
    <glyph glyph-name="Eng" unicode="&#x14a;" horiz-adv-x="525" 
d="M325 -250h-46v47h46c41 0 75 34 75 75v128l-275 666v-666h-50v800h50l275 -667v667h50v-925c0 -35 -12 -64 -37 -88c-24 -25 -53 -37 -88 -37z" />
    <glyph glyph-name="eng" unicode="&#x14b;" horiz-adv-x="425" 
d="M225 -54h-21v47h21c41 0 75 34 75 75v32l-175 466v-466h-50v600h50l175 -467v467h50v-629c0 -35 -12 -64 -37 -88c-24 -25 -53 -37 -88 -37z" />
    <glyph glyph-name="Omacron" unicode="&#x14c;" horiz-adv-x="500" 
d="M75 171v458c0 49 17 90 51 124s75 51 124 51s90 -17 124 -51s51 -75 51 -124v-458c0 -49 -17 -90 -51 -124s-75 -51 -124 -51s-90 17 -124 51s-51 75 -51 124zM125 632v-464c0 -35 12 -64 36 -89c25 -24 54 -36 89 -36s64 12 88 36c25 25 37 54 37 89v464
c0 35 -12 64 -37 88c-24 25 -53 37 -88 37s-64 -12 -89 -37c-24 -24 -36 -53 -36 -88zM375 903h-250v41h250v-41z" />
    <glyph glyph-name="omacron" unicode="&#x14d;" 
d="M75 221v358c0 35 12 64 36 88c25 25 54 37 89 37s64 -12 88 -37c25 -24 37 -53 37 -88v-358c0 -35 -12 -64 -37 -89c-24 -24 -53 -36 -88 -36s-64 12 -89 36c-24 25 -36 54 -36 89zM125 582v-364c0 -41 34 -75 75 -75s75 34 75 75v364c0 41 -34 75 -75 75
s-75 -34 -75 -75zM310 803h-220v41h220v-41z" />
    <glyph glyph-name="Obreve" unicode="&#x14e;" horiz-adv-x="500" 
d="M75 171v458c0 49 17 90 51 124s75 51 124 51s90 -17 124 -51s51 -75 51 -124v-458c0 -49 -17 -90 -51 -124s-75 -51 -124 -51s-90 17 -124 51s-51 75 -51 124zM125 632v-464c0 -35 12 -64 36 -89c25 -24 54 -36 89 -36s64 12 88 36c25 25 37 54 37 89v464
c0 35 -12 64 -37 88c-24 25 -53 37 -88 37s-64 -12 -89 -37c-24 -24 -36 -53 -36 -88zM250 878v41c43 0 71 24 71 56v14h41v-14c0 -56 -39 -97 -112 -97zM250 919v-41c-73 0 -112 41 -112 97v14h41v-14c0 -32 28 -56 71 -56z" />
    <glyph glyph-name="obreve" unicode="&#x14f;" 
d="M75 221v358c0 35 12 64 36 88c25 25 54 37 89 37s64 -12 88 -37c25 -24 37 -53 37 -88v-358c0 -35 -12 -64 -37 -89c-24 -24 -53 -36 -88 -36s-64 12 -89 36c-24 25 -36 54 -36 89zM125 582v-364c0 -41 34 -75 75 -75s75 34 75 75v364c0 41 -34 75 -75 75
s-75 -34 -75 -75zM271 875v14h41v-14c0 -56 -39 -97 -112 -97s-112 41 -112 97v14h41v-14c0 -32 28 -56 71 -56s71 24 71 56z" />
    <glyph glyph-name="Ohungarumlaut" unicode="&#x150;" horiz-adv-x="500" 
d="M254 938l-70 -57l-26 30l68 61zM393 938l-70 -57l-26 30l68 61zM75 171v458c0 49 17 90 51 124s75 51 124 51s90 -17 124 -51s51 -75 51 -124v-458c0 -49 -17 -90 -51 -124s-75 -51 -124 -51s-90 17 -124 51s-51 75 -51 124zM125 632v-464c0 -35 12 -64 36 -89
c25 -24 54 -36 89 -36s64 12 88 36c25 25 37 54 37 89v464c0 35 -12 64 -37 88c-24 25 -53 37 -88 37s-64 -12 -89 -37c-24 -24 -36 -53 -36 -88z" />
    <glyph glyph-name="ohungarumlaut" unicode="&#x151;" 
d="M199 838l-70 -57l-26 30l68 61zM338 838l-70 -57l-26 30l68 61zM75 221v358c0 35 12 64 36 88c25 25 54 37 89 37s64 -12 88 -37c25 -24 37 -53 37 -88v-358c0 -35 -12 -64 -37 -89c-24 -24 -53 -36 -88 -36s-64 12 -89 36c-24 25 -36 54 -36 89zM125 582v-364
c0 -41 34 -75 75 -75s75 34 75 75v364c0 41 -34 75 -75 75s-75 -34 -75 -75z" />
    <glyph glyph-name="OE" unicode="&#x152;" horiz-adv-x="720" 
d="M661 0h-286v48c-35 -35 -76 -52 -125 -52s-90 17 -124 51s-51 75 -51 124v458c0 49 17 90 51 124s75 51 124 51s90 -17 125 -52v48h286v-47h-236v-454h186v-48h-186v-204h236v-47zM125 632v-464c0 -35 12 -64 36 -89c25 -24 54 -36 89 -36c33 0 62 12 86 35
c25 23 38 52 39 85v469c0 35 -12 64 -37 88c-24 25 -53 37 -88 37s-64 -12 -89 -37c-24 -24 -36 -53 -36 -88z" />
    <glyph glyph-name="oe" unicode="&#x153;" horiz-adv-x="559" 
d="M500 100h-225v21c-22 -17 -47 -25 -75 -25c-35 0 -64 12 -89 36c-24 25 -36 54 -36 89v358c0 35 12 64 36 88c25 25 54 37 89 37c27 0 52 -8 75 -25v21h225v-47h-175v-309h150v-48h-150v-149h175v-47zM125 582v-364c0 -41 34 -75 75 -75c40 0 72 32 75 72v367
c0 41 -34 75 -75 75s-75 -34 -75 -75z" />
    <glyph glyph-name="Racute" unicode="&#x154;" horiz-adv-x="500" 
d="M125 251v-251h-50v800h175c49 0 90 -17 124 -51s51 -75 51 -124v-199c0 -64 -34 -120 -87 -152c53 -31 87 -87 87 -150v-124h-50v126c0 35 -12 64 -37 88c-24 25 -53 37 -88 37h-125zM250 753h-125v-454h130c33 1 62 14 85 38s35 53 35 87v204c0 35 -12 64 -37 88
c-24 25 -53 37 -88 37zM337 931l-162 -51l-13 36l161 57z" />
    <glyph glyph-name="racute" unicode="&#x155;" 
d="M205 296h-130v404h125c35 0 64 -12 88 -37c25 -24 37 -53 37 -88v-154c0 -43 -17 -76 -52 -101c35 -25 52 -58 52 -101v-119h-50v121c0 40 -31 72 -70 75zM200 653h-75v-309h75c41 0 75 34 75 75v159c0 41 -34 75 -75 75zM125 100h-50v196h50v-196zM287 831l-162 -51
l-13 36l161 57z" />
    <glyph glyph-name="Rcommaaccent" unicode="&#x156;" horiz-adv-x="500" 
d="M125 251v-251h-50v800h175c49 0 90 -17 124 -51s51 -75 51 -124v-199c0 -64 -34 -120 -87 -152c53 -31 87 -87 87 -150v-124h-50v126c0 35 -12 64 -37 88c-24 25 -53 37 -88 37h-125zM250 753h-125v-454h130c33 1 62 14 85 38s35 53 35 87v204c0 35 -12 64 -37 88
c-24 25 -53 37 -88 37zM225 -197v147h50v-53c0 -17 -6 -54 -11 -77l-3 -17h-36z" />
    <glyph glyph-name="rcommaaccent" unicode="&#x157;" 
d="M125 100h-50v600h125c35 0 64 -12 88 -37c25 -24 37 -53 37 -88v-154c0 -43 -17 -76 -52 -101c35 -25 52 -58 52 -101v-119h-50v121c0 41 -34 75 -75 75h-75v-196zM200 653h-75v-309h80c39 3 70 35 70 75v159c0 41 -34 75 -75 75zM175 -97v147h50v-53
c0 -17 -6 -54 -11 -77l-3 -17h-36z" />
    <glyph glyph-name="Rcaron" unicode="&#x158;" horiz-adv-x="500" 
d="M125 251v-251h-50v800h175c49 0 90 -17 124 -51s51 -75 51 -124v-199c0 -64 -34 -120 -87 -152c53 -31 87 -87 87 -150v-124h-50v126c0 35 -12 64 -37 88c-24 25 -53 37 -88 37h-125zM250 753h-125v-454h130c33 1 62 14 85 38s35 53 35 87v204c0 35 -12 64 -37 88
c-24 25 -53 37 -88 37zM214 882l-94 86l30 34l75 -72l75 72l30 -34l-94 -86h-22z" />
    <glyph glyph-name="rcaron" unicode="&#x159;" 
d="M125 100h-50v600h125c35 0 64 -12 88 -37c25 -24 37 -53 37 -88v-154c0 -43 -17 -76 -52 -101c35 -25 52 -58 52 -101v-119h-50v121c0 41 -34 75 -75 75h-75v-196zM200 653h-75v-309h80c39 3 70 35 70 75v159c0 41 -34 75 -75 75zM179 782l-94 86l30 34l75 -72l75 72
l30 -34l-94 -86h-22z" />
    <glyph glyph-name="Sacute" unicode="&#x15a;" horiz-adv-x="490" 
d="M70 171v36h50v-39c0 -35 12 -64 36 -89c25 -24 54 -36 89 -36s64 12 88 36c25 25 37 54 37 89v3c0 29 -10 55 -29 78l-217 261c-33 32 -50 72 -50 119c0 49 16 90 49 124s74 51 122 51c47 0 88 -17 121 -51s50 -75 50 -124v-36h-50v39c0 35 -12 64 -36 88
c-23 25 -52 37 -85 37c-34 0 -63 -12 -86 -37c-23 -24 -35 -53 -35 -88v-3c0 -31 10 -57 31 -80l217 -261c32 -32 48 -71 48 -117c0 -49 -17 -90 -51 -124s-75 -51 -124 -51s-90 17 -124 51s-51 75 -51 124zM363 931l-162 -51l-13 36l161 57z" />
    <glyph glyph-name="sacute" unicode="&#x15b;" horiz-adv-x="390" 
d="M70 221v46h50v-49c0 -41 34 -75 75 -75s75 34 75 75v3c0 15 -3 27 -10 36l-163 248c-18 21 -27 46 -27 74c0 35 12 64 36 88c25 25 54 37 89 37s64 -12 88 -37c25 -24 37 -53 37 -88v-46h-50v49c0 41 -34 75 -75 75s-75 -34 -75 -75v-3c-1 -13 3 -26 12 -39l164 -248
c16 -21 24 -45 24 -71c0 -35 -12 -64 -37 -89c-24 -24 -53 -36 -88 -36s-64 12 -89 36c-24 25 -36 54 -36 89zM307 831l-162 -51l-13 36l161 57z" />
    <glyph glyph-name="Scircumflex" unicode="&#x15c;" horiz-adv-x="490" 
d="M70 171v36h50v-39c0 -35 12 -64 36 -89c25 -24 54 -36 89 -36s64 12 88 36c25 25 37 54 37 89v3c0 29 -10 55 -29 78l-217 261c-33 32 -50 72 -50 119c0 49 16 90 49 124s74 51 122 51c47 0 88 -17 121 -51s50 -75 50 -124v-36h-50v39c0 35 -12 64 -36 88
c-23 25 -52 37 -85 37c-34 0 -63 -12 -86 -37c-23 -24 -35 -53 -35 -88v-3c0 -31 10 -57 31 -80l217 -261c32 -32 48 -71 48 -117c0 -49 -17 -90 -51 -124s-75 -51 -124 -51s-90 17 -124 51s-51 75 -51 124zM256 1002l94 -87l-30 -33l-75 72l-75 -72l-30 33l94 87h22z" />
    <glyph glyph-name="scircumflex" unicode="&#x15d;" horiz-adv-x="390" 
d="M70 221v46h50v-49c0 -41 34 -75 75 -75s75 34 75 75v3c0 15 -3 27 -10 36l-163 248c-18 21 -27 46 -27 74c0 35 12 64 36 88c25 25 54 37 89 37s64 -12 88 -37c25 -24 37 -53 37 -88v-46h-50v49c0 41 -34 75 -75 75s-75 -34 -75 -75v-3c-1 -13 3 -26 12 -39l164 -248
c16 -21 24 -45 24 -71c0 -35 -12 -64 -37 -89c-24 -24 -53 -36 -88 -36s-64 12 -89 36c-24 25 -36 54 -36 89zM206 902l94 -87l-30 -33l-75 72l-75 -72l-30 33l94 87h22z" />
    <glyph glyph-name="Scedilla" unicode="&#x15e;" horiz-adv-x="490" 
d="M70 171v36h50v-39c0 -35 12 -64 36 -89c25 -24 54 -36 89 -36s64 12 88 36c25 25 37 54 37 89v3c0 29 -10 55 -29 78l-217 261c-33 32 -50 72 -50 119c0 49 16 90 49 124s74 51 122 51c47 0 88 -17 121 -51s50 -75 50 -124v-36h-50v39c0 35 -12 64 -36 88
c-23 25 -52 37 -85 37c-34 0 -63 -12 -86 -37c-23 -24 -35 -53 -35 -88v-3c0 -31 10 -57 31 -80l217 -261c32 -32 48 -71 48 -117c0 -45 -15 -85 -46 -118c-30 -33 -67 -52 -112 -56l-15 -33h23c32 0 55 -29 55 -64c0 -40 -33 -74 -93 -74c-29 0 -59 16 -71 28l-9 10l12 20
c21 -20 43 -30 68 -30c33 0 50 21 50 46c0 19 -15 39 -38 39h-48l30 58c-44 5 -81 23 -111 56s-45 73 -45 118z" />
    <glyph glyph-name="scedilla" unicode="&#x15f;" horiz-adv-x="390" 
d="M70 221v46h50v-49c0 -41 34 -75 75 -75s75 34 75 75v3c0 15 -3 27 -10 36l-163 248c-18 21 -27 46 -27 74c0 35 12 64 36 88c25 25 54 37 89 37s64 -12 88 -37c25 -24 37 -53 37 -88v-46h-50v49c0 41 -34 75 -75 75s-75 -34 -75 -75v-3c-1 -13 3 -26 12 -39l164 -248
c16 -21 24 -45 24 -71c0 -61 -44 -113 -104 -124l-16 -33h23c32 0 55 -29 55 -64c0 -40 -33 -74 -93 -74c-29 0 -59 16 -71 28l-9 10l12 20c21 -20 43 -30 68 -30c33 0 50 21 50 46c0 19 -15 39 -38 39h-48l30 58c-63 7 -109 60 -109 124z" />
    <glyph glyph-name="Scaron" unicode="&#x160;" horiz-adv-x="490" 
d="M70 171v36h50v-39c0 -35 12 -64 36 -89c25 -24 54 -36 89 -36s64 12 88 36c25 25 37 54 37 89v3c0 29 -10 55 -29 78l-217 261c-33 32 -50 72 -50 119c0 49 16 90 49 124s74 51 122 51c47 0 88 -17 121 -51s50 -75 50 -124v-36h-50v39c0 35 -12 64 -36 88
c-23 25 -52 37 -85 37c-34 0 -63 -12 -86 -37c-23 -24 -35 -53 -35 -88v-3c0 -31 10 -57 31 -80l217 -261c32 -32 48 -71 48 -117c0 -49 -17 -90 -51 -124s-75 -51 -124 -51s-90 17 -124 51s-51 75 -51 124zM234 882l-94 86l30 34l75 -72l75 72l30 -34l-94 -86h-22z" />
    <glyph glyph-name="scaron" unicode="&#x161;" horiz-adv-x="390" 
d="M70 221v46h50v-49c0 -41 34 -75 75 -75s75 34 75 75v3c0 15 -3 27 -10 36l-163 248c-18 21 -27 46 -27 74c0 35 12 64 36 88c25 25 54 37 89 37s64 -12 88 -37c25 -24 37 -53 37 -88v-46h-50v49c0 41 -34 75 -75 75s-75 -34 -75 -75v-3c-1 -13 3 -26 12 -39l164 -248
c16 -21 24 -45 24 -71c0 -35 -12 -64 -37 -89c-24 -24 -53 -36 -88 -36s-64 12 -89 36c-24 25 -36 54 -36 89zM184 782l-94 86l30 34l75 -72l75 72l30 -34l-94 -86h-22z" />
    <glyph glyph-name="Tcommaaccent" unicode="&#x162;" horiz-adv-x="401" 
d="M175 753h-139v47h329v-47h-140v-753h-50v753zM175 -197v147h50v-53c0 -17 -6 -54 -11 -77l-3 -17h-36z" />
    <glyph glyph-name="tcommaaccent" unicode="&#x163;" horiz-adv-x="301" 
d="M126 653h-90v47h229v-47h-89v-553h-50v553zM126 -97v147h50v-53c0 -17 -6 -54 -10 -77l-4 -17h-36z" />
    <glyph glyph-name="Tcaron" unicode="&#x164;" horiz-adv-x="401" 
d="M190 882l-94 86l30 34l75 -72l75 72l30 -34l-94 -86h-22zM175 753h-139v47h329v-47h-140v-753h-50v753z" />
    <glyph glyph-name="tcaron" unicode="&#x165;" horiz-adv-x="301" 
d="M140 782l-94 86l30 34l75 -72l75 72l30 -34l-94 -86h-22zM126 653h-90v47h229v-47h-89v-553h-50v553z" />
    <glyph glyph-name="Tbar" unicode="&#x166;" horiz-adv-x="401" 
d="M175 753h-139v47h329v-47h-140v-455h101v-41h-101v-257h-50v257h-99v41h99v455z" />
    <glyph glyph-name="tbar" unicode="&#x167;" horiz-adv-x="301" 
d="M126 653h-90v47h229v-47h-89v-310h85v-41h-85v-202h-50v202h-85v41h85v310z" />
    <glyph glyph-name="Utilde" unicode="&#x168;" horiz-adv-x="500" 
d="M149 900l-6 -2l-17 35l5 3c23 13 47 20 73 20c11 0 27 -4 46 -12s34 -12 45 -12c29 0 56 14 56 15l5 3l18 -36l-5 -2c-24 -14 -49 -21 -76 -21c-11 0 -26 4 -45 12s-33 12 -43 12c-29 0 -56 -14 -56 -15zM125 800v-632c0 -35 12 -64 36 -89c25 -24 54 -36 89 -36
s64 12 88 36c25 25 37 54 37 89v632h50v-629c0 -49 -17 -90 -51 -124s-75 -51 -124 -51s-90 17 -124 51s-51 75 -51 124v629h50z" />
    <glyph glyph-name="utilde" unicode="&#x169;" 
d="M99 800l-6 -2l-17 35l5 3c23 13 47 20 73 20c11 0 27 -4 46 -12s34 -12 45 -12c29 0 56 14 56 15l5 3l18 -36l-5 -2c-24 -14 -49 -21 -76 -21c-11 0 -26 4 -45 12s-33 12 -43 12c-29 0 -56 -14 -56 -15zM125 700v-482c0 -41 34 -75 75 -75s75 34 75 75v482h50v-479
c0 -35 -12 -64 -37 -89c-24 -24 -53 -36 -88 -36s-64 12 -89 36c-24 25 -36 54 -36 89v479h50z" />
    <glyph glyph-name="Umacron" unicode="&#x16a;" horiz-adv-x="500" 
d="M125 800v-632c0 -35 12 -64 36 -89c25 -24 54 -36 89 -36s64 12 88 36c25 25 37 54 37 89v632h50v-629c0 -49 -17 -90 -51 -124s-75 -51 -124 -51s-90 17 -124 51s-51 75 -51 124v629h50zM375 903h-250v41h250v-41z" />
    <glyph glyph-name="umacron" unicode="&#x16b;" 
d="M125 700v-482c0 -41 34 -75 75 -75s75 34 75 75v482h50v-479c0 -35 -12 -64 -37 -89c-24 -24 -53 -36 -88 -36s-64 12 -89 36c-24 25 -36 54 -36 89v479h50zM310 803h-220v41h220v-41z" />
    <glyph glyph-name="Ubreve" unicode="&#x16c;" horiz-adv-x="500" 
d="M125 800v-632c0 -35 12 -64 36 -89c25 -24 54 -36 89 -36s64 12 88 36c25 25 37 54 37 89v632h50v-629c0 -49 -17 -90 -51 -124s-75 -51 -124 -51s-90 17 -124 51s-51 75 -51 124v629h50zM321 975v14h41v-14c0 -56 -39 -97 -112 -97s-112 41 -112 97v14h41v-14
c0 -32 28 -56 71 -56s71 24 71 56z" />
    <glyph glyph-name="ubreve" unicode="&#x16d;" 
d="M125 700v-482c0 -41 34 -75 75 -75s75 34 75 75v482h50v-479c0 -35 -12 -64 -37 -89c-24 -24 -53 -36 -88 -36s-64 12 -89 36c-24 25 -36 54 -36 89v479h50zM271 875v14h41v-14c0 -56 -39 -97 -112 -97s-112 41 -112 97v14h41v-14c0 -32 28 -56 71 -56s71 24 71 56z" />
    <glyph glyph-name="Uring" unicode="&#x16e;" horiz-adv-x="500" 
d="M125 800v-632c0 -35 12 -64 36 -89c25 -24 54 -36 89 -36s64 12 88 36c25 25 37 54 37 89v632h50v-629c0 -49 -17 -90 -51 -124s-75 -51 -124 -51s-90 17 -124 51s-51 75 -51 124v629h50zM181 856c-37 39 -37 100 0 137c39 39 100 39 137 0c39 -37 39 -98 0 -137
c-37 -37 -98 -37 -137 0zM250 981c-29 0 -56 -25 -56 -56s27 -56 56 -56s56 25 56 56s-25 56 -56 56z" />
    <glyph glyph-name="uring" unicode="&#x16f;" 
d="M125 700v-482c0 -41 34 -75 75 -75s75 34 75 75v482h50v-479c0 -35 -12 -64 -37 -89c-24 -24 -53 -36 -88 -36s-64 12 -89 36c-24 25 -36 54 -36 89v479h50zM131 756c-37 39 -37 100 0 137c39 39 100 39 137 0c39 -37 39 -98 0 -137c-37 -37 -98 -37 -137 0zM200 881
c-29 0 -56 -25 -56 -56s27 -56 56 -56s56 25 56 56s-25 56 -56 56z" />
    <glyph glyph-name="Uhungarumlaut" unicode="&#x170;" horiz-adv-x="500" 
d="M254 938l-70 -57l-26 30l68 61zM393 938l-70 -57l-26 30l68 61zM125 800v-632c0 -35 12 -64 36 -89c25 -24 54 -36 89 -36s64 12 88 36c25 25 37 54 37 89v632h50v-629c0 -49 -17 -90 -51 -124s-75 -51 -124 -51s-90 17 -124 51s-51 75 -51 124v629h50z" />
    <glyph glyph-name="uhungarumlaut" unicode="&#x171;" 
d="M199 838l-70 -57l-26 30l68 61zM338 838l-70 -57l-26 30l68 61zM125 700v-482c0 -41 34 -75 75 -75s75 34 75 75v482h50v-479c0 -35 -12 -64 -37 -89c-24 -24 -53 -36 -88 -36s-64 12 -89 36c-24 25 -36 54 -36 89v479h50z" />
    <glyph glyph-name="Uogonek" unicode="&#x172;" horiz-adv-x="500" 
d="M125 800v-632c0 -35 12 -64 36 -89c25 -24 54 -36 89 -36s64 12 88 36c25 25 37 54 37 89v632h50v-629c0 -42 -13 -79 -40 -112c-27 -32 -60 -52 -101 -59c-36 -39 -54 -68 -54 -87s9 -28 27 -28c11 0 23 8 30 15l5 5l24 -15c-15 -25 -34 -37 -59 -37
c-45 0 -68 21 -68 63c0 25 13 52 38 82c-43 5 -80 24 -109 57s-43 71 -43 116v629h50z" />
    <glyph glyph-name="uogonek" unicode="&#x173;" 
d="M125 700v-482c0 -41 34 -75 75 -75s75 34 75 75v482h50v-479c0 -57 -40 -106 -93 -121c-37 -40 -55 -69 -55 -87c0 -19 9 -28 27 -28c11 0 25 8 30 15l5 5l24 -15c-15 -25 -34 -37 -59 -37c-45 0 -68 21 -68 63c0 25 13 53 39 82c-57 12 -100 63 -100 123v479h50z" />
    <glyph glyph-name="Wcircumflex" unicode="&#x174;" horiz-adv-x="550" 
d="M125 0h-50v800h50v-704l125 208h50l125 -208v704h50v-800h-50l-150 248zM286 1002l94 -87l-30 -33l-75 72l-75 -72l-30 33l94 87h22z" />
    <glyph glyph-name="wcircumflex" unicode="&#x175;" horiz-adv-x="450" 
d="M75 700h50v-495l78 145h44l78 -145v495h50v-600h-50l-100 189l-100 -189h-50v600zM236 902l94 -87l-30 -33l-75 72l-75 -72l-30 33l94 87h22z" />
    <glyph glyph-name="Ycircumflex" unicode="&#x176;" horiz-adv-x="470" 
d="M260 0h-50v251l-154 549h52l127 -460l127 460h52l-154 -549v-251zM210 1002l130 -87l-30 -33l-75 72l-75 -72l-30 33l94 87h-14z" />
    <glyph glyph-name="ycircumflex" unicode="&#x177;" horiz-adv-x="381" 
d="M215 100h-50v196l-109 404h48l86 -324l87 324h48l-110 -404v-196zM165 902l130 -87l-30 -33l-75 72l-75 -72l-30 33l94 87h-14z" />
    <glyph glyph-name="Ydieresis" unicode="&#x178;" horiz-adv-x="470" 
d="M260 0h-50v251l-154 549h52l127 -460l127 460h52l-154 -549v-251zM301 906c-24 24 15 63 37 37c26 -22 -13 -61 -37 -37zM131 906c-24 24 15 63 37 37c26 -22 -13 -61 -37 -37z" />
    <glyph glyph-name="Zacute" unicode="&#x179;" horiz-adv-x="490" 
d="M357 753h-278v47h332v-47l-283 -706h287v-47h-340v47zM332 931l-162 -51l-13 36l161 57z" />
    <glyph glyph-name="zacute" unicode="&#x17a;" 
d="M269 653h-190v47h242v-47l-195 -506h199v-47h-250v47zM313 831l-162 -51l-13 36l161 57z" />
    <glyph glyph-name="Zdotaccent" unicode="&#x17b;" horiz-adv-x="490" 
d="M357 753h-278v47h332v-47l-283 -706h287v-47h-340v47zM224 904c-25 28 16 69 41 41c28 -25 -13 -66 -41 -41z" />
    <glyph glyph-name="zdotaccent" unicode="&#x17c;" 
d="M269 653h-190v47h242v-47l-195 -506h199v-47h-250v47zM179 804c-25 28 16 69 41 41c28 -25 -13 -66 -41 -41z" />
    <glyph glyph-name="Zcaron" unicode="&#x17d;" horiz-adv-x="490" 
d="M234 882l-94 86l30 34l75 -72l75 72l30 -34l-94 -86h-22zM357 753h-278v47h332v-47l-283 -706h287v-47h-340v47z" />
    <glyph glyph-name="zcaron" unicode="&#x17e;" 
d="M189 782l-94 86l30 34l75 -72l75 72l30 -34l-94 -86h-22zM269 653h-190v47h242v-47l-195 -506h199v-47h-250v47z" />
    <glyph glyph-name="florin" unicode="&#x192;" horiz-adv-x="355" 
d="M269 700h75v-47h-75c-41 0 -75 -34 -75 -75v-124h107v-48h-107v-281c0 -35 -12 -64 -37 -89c-25 -24 -54 -36 -88 -36h-36v47h36c41 0 75 34 75 75v284h-83v48h83v121c0 35 12 64 36 88c25 25 54 37 89 37z" />
    <glyph glyph-name="AEacute" unicode="&#x1fc;" horiz-adv-x="674" 
d="M616 0h-287v150h-192l-41 -150h-50l220 800h350v-47h-237v-454h187v-48h-187v-204h237v-47zM329 753h-26l-153 -556h179v556zM520 931l-162 -51l-13 36l161 57z" />
    <glyph glyph-name="aeacute" unicode="&#x1fd;" horiz-adv-x="548" 
d="M490 100h-225v130h-132l-31 -130h-46l139 600h295v-47h-175v-309h150v-48h-150v-149h175v-47zM265 653h-31l-90 -376h121v376zM432 831l-162 -51l-13 36l161 57z" />
    <glyph glyph-name="Oslashacute" unicode="&#x1fe;" horiz-adv-x="500" 
d="M75 171v458c0 49 17 90 51 124s75 51 124 51c44 0 83 -15 116 -45l20 50l42 -18l-28 -71c17 -28 25 -58 25 -91v-458c0 -49 -17 -90 -51 -124s-75 -51 -124 -51c-44 0 -83 15 -117 44l-19 -49l-42 18l28 71c-17 28 -25 58 -25 91zM375 168v464c0 5 -1 12 -2 20l-221 -563
c25 -31 58 -46 98 -46c35 0 64 12 88 36c25 25 37 54 37 89zM125 632v-464c0 -9 0 -16 1 -20l221 562c-25 31 -57 47 -97 47c-35 0 -64 -12 -89 -37c-24 -24 -36 -53 -36 -88zM363 931l-162 -51l-13 36l161 57z" />
    <glyph glyph-name="oslashacute" unicode="&#x1ff;" 
d="M75 221v358c0 35 12 64 36 88c25 25 54 37 89 37c29 0 55 -9 77 -27l11 31l38 -16l-18 -50c11 -19 17 -40 17 -63v-358c0 -35 -12 -64 -37 -89c-24 -24 -53 -36 -88 -36c-29 0 -54 9 -77 26l-11 -30l-38 16l18 50c-11 19 -17 40 -17 63zM125 582v-332l134 377
c-15 20 -35 30 -59 30c-41 0 -75 -34 -75 -75zM200 143c41 0 75 34 75 75v331l-134 -377c16 -19 36 -29 59 -29zM313 831l-162 -51l-13 36l161 57z" />
    <glyph glyph-name="Scommaaccent" unicode="&#x218;" horiz-adv-x="490" 
d="M70 171v36h50v-39c0 -35 12 -64 36 -89c25 -24 54 -36 89 -36s64 12 88 36c25 25 37 54 37 89v3c0 29 -10 55 -29 78l-217 261c-33 32 -50 72 -50 119c0 49 16 90 49 124s74 51 122 51c47 0 88 -17 121 -51s50 -75 50 -124v-36h-50v39c0 35 -12 64 -36 88
c-23 25 -52 37 -85 37c-34 0 -63 -12 -86 -37c-23 -24 -35 -53 -35 -88v-3c0 -31 10 -57 31 -80l217 -261c32 -32 48 -71 48 -117c0 -49 -17 -90 -51 -124s-75 -51 -124 -51s-90 17 -124 51s-51 75 -51 124zM225 -197v147h50v-53c0 -17 -6 -54 -11 -77l-3 -17h-36z" />
    <glyph glyph-name="scommaaccent" unicode="&#x219;" horiz-adv-x="390" 
d="M70 221v46h50v-49c0 -41 34 -75 75 -75s75 34 75 75v3c0 15 -3 27 -10 36l-163 248c-18 21 -27 46 -27 74c0 35 12 64 36 88c25 25 54 37 89 37s64 -12 88 -37c25 -24 37 -53 37 -88v-46h-50v49c0 41 -34 75 -75 75s-75 -34 -75 -75v-3c-1 -13 3 -26 12 -39l164 -248
c16 -21 24 -45 24 -71c0 -35 -12 -64 -37 -89c-24 -24 -53 -36 -88 -36s-64 12 -89 36c-24 25 -36 54 -36 89zM175 -97v147h50v-53c0 -17 -6 -54 -11 -77l-3 -17h-36z" />
    <glyph glyph-name="uni021A" unicode="&#x21a;" horiz-adv-x="401" 
d="M175 753h-139v47h329v-47h-140v-753h-50v753zM175 -197v147h50v-53c0 -17 -6 -54 -11 -77l-3 -17h-36z" />
    <glyph glyph-name="uni021B" unicode="&#x21b;" horiz-adv-x="301" 
d="M126 653h-90v47h229v-47h-89v-553h-50v553zM126 -97v147h50v-53c0 -17 -6 -54 -10 -77l-4 -17h-36z" />
    <glyph glyph-name="circumflex" unicode="&#x2c6;" horiz-adv-x="330" 
d="M176 902l94 -87l-30 -33l-75 72l-75 -72l-30 33l94 87h22z" />
    <glyph glyph-name="caron" unicode="&#x2c7;" horiz-adv-x="330" 
d="M154 782l-94 86l30 34l75 -72l75 72l30 -34l-94 -86h-22z" />
    <glyph glyph-name="breve" unicode="&#x2d8;" horiz-adv-x="330" 
d="M165 778v41c43 0 71 24 71 56v14h41v-14c0 -56 -39 -97 -112 -97zM165 819v-41c-73 0 -112 41 -112 97v14h41v-14c0 -32 28 -56 71 -56z" />
    <glyph glyph-name="dotaccent" unicode="&#x2d9;" horiz-adv-x="213" 
d="M79 804c-25 28 16 69 41 41c28 -25 -13 -66 -41 -41z" />
    <glyph glyph-name="ring" unicode="&#x2da;" horiz-adv-x="330" 
d="M96 756c-37 39 -37 100 0 137c39 39 100 39 137 0c39 -37 39 -98 0 -137c-37 -37 -98 -37 -137 0zM125 864c-21 -21 -21 -56 0 -79c23 -21 58 -21 79 0c23 23 23 58 0 79c-21 23 -56 23 -79 0z" />
    <glyph glyph-name="ogonek" unicode="&#x2db;" horiz-adv-x="200" 
d="M78 100l15 14l42 -14c-39 -40 -59 -70 -59 -91c0 -19 9 -28 27 -28c11 0 23 8 30 15l5 5l24 -15c-15 -25 -34 -37 -59 -37c-45 0 -68 21 -68 63c0 29 24 68 43 88z" />
    <glyph glyph-name="tilde" unicode="&#x2dc;" horiz-adv-x="200" 
d="M-1 800l-6 -2l-17 35l5 3c23 13 47 20 73 20c11 0 27 -4 46 -12s34 -12 45 -12c29 0 56 14 56 15l5 3l18 -36l-5 -2c-24 -14 -49 -21 -76 -21c-11 0 -26 4 -45 12s-33 12 -43 12c-29 0 -56 -14 -56 -15z" />
    <glyph glyph-name="hungarumlaut" unicode="&#x2dd;" horiz-adv-x="350" 
d="M168 838l-70 -57l-26 30l68 61zM307 838l-70 -57l-26 30l68 61z" />
    <glyph glyph-name="uni037E" unicode="&#x37e;" horiz-adv-x="213" 
d="M75 7v147h50v-53c0 -17 -6 -54 -11 -77l-3 -17h-36zM71 576c0 39 58 39 58 0c0 -37 -58 -37 -58 0z" />
    <glyph glyph-name="tonos" unicode="&#x384;" horiz-adv-x="200" 
d="M124 850l-5 -82h-38c-3 45 -5 73 -5 82v75h48v-75z" />
    <glyph glyph-name="Alphatonos" unicode="&#x386;" horiz-adv-x="503" 
d="M226 800h50l171 -800h-50l-32 150h-228l-31 -150h-50zM355 197l-104 491l-104 -491h208zM275 950l-5 -82h-38c-3 45 -5 73 -5 82v75h48v-75z" />
    <glyph glyph-name="Epsilontonos" unicode="&#x388;" horiz-adv-x="420" 
d="M361 0h-286v800h286v-47h-236v-454h186v-48h-186v-204h236v-47zM242 950l-5 -82h-38c-3 45 -5 73 -5 82v75h48v-75z" />
    <glyph glyph-name="Etatonos" unicode="&#x389;" horiz-adv-x="500" 
d="M425 0h-50v251h-250v-251h-50v800h50v-501h250v501h50v-800zM274 950l-5 -82h-38c-3 45 -5 73 -5 82v75h48v-75z" />
    <glyph glyph-name="Iotatonos" unicode="&#x38a;" horiz-adv-x="213" 
d="M129 950l-5 -82h-38c-3 45 -5 73 -5 82v75h48v-75zM131 0h-50v800h50v-800z" />
    <glyph glyph-name="Omicrontonos" unicode="&#x38c;" horiz-adv-x="500" 
d="M75 171v458c0 49 17 90 51 124s75 51 124 51s90 -17 124 -51s51 -75 51 -124v-458c0 -49 -17 -90 -51 -124s-75 -51 -124 -51s-90 17 -124 51s-51 75 -51 124zM125 632v-464c0 -35 12 -64 36 -89c25 -24 54 -36 89 -36s64 12 88 36c25 25 37 54 37 89v464
c0 35 -12 64 -37 88c-24 25 -53 37 -88 37s-64 -12 -89 -37c-24 -24 -36 -53 -36 -88zM274 950l-5 -82h-38c-3 45 -5 73 -5 82v75h48v-75z" />
    <glyph glyph-name="Upsilontonos" unicode="&#x38e;" horiz-adv-x="470" 
d="M260 0h-50v251l-154 549h52l127 -460l127 460h52l-154 -549v-251zM259 950l-5 -82h-38c-3 45 -5 73 -5 82v75h48v-75z" />
    <glyph glyph-name="Omegatonos" unicode="&#x38f;" horiz-adv-x="500" 
d="M324 47h101v-47h-153v47l95 278c5 17 8 32 8 43v264c0 35 -12 64 -37 88c-24 25 -53 37 -88 37s-64 -12 -89 -37c-24 -24 -36 -53 -36 -88v-264c0 -15 3 -29 8 -43l95 -278v-47h-153v47h101l-90 263c-7 20 -11 40 -11 61v258c0 49 17 90 51 124s75 51 124 51
s90 -17 124 -51s51 -75 51 -124v-258c0 -21 -4 -41 -11 -61zM274 950l-5 -82h-38c-3 45 -5 73 -5 82v75h48v-75z" />
    <glyph glyph-name="iotadieresistonos" unicode="&#x390;" horiz-adv-x="213" 
d="M-19 806c-25 25 12 62 37 37c27 -22 -16 -61 -37 -37zM195 806c-25 25 15 62 37 37c26 -22 -13 -61 -37 -37zM129 850l-4 -82h-38c-3 45 -5 73 -5 82v75h47v-75zM131 100h-50v600h50v-600z" />
    <glyph glyph-name="Alpha" unicode="&#x391;" horiz-adv-x="503" 
d="M226 800h50l171 -800h-50l-32 150h-228l-31 -150h-50zM355 197l-104 491l-104 -491h208z" />
    <glyph glyph-name="Beta" unicode="&#x392;" horiz-adv-x="500" 
d="M250 0h-175v800h175c49 0 90 -17 124 -51s51 -75 51 -124v-147c0 -64 -34 -121 -87 -152c53 -31 87 -87 87 -151c0 -49 -17 -90 -51 -124s-75 -51 -124 -51zM250 753h-125v-403h130c33 1 62 14 85 38s35 53 35 87v153c0 35 -12 64 -37 88c-24 25 -53 37 -88 37zM250 303
h-125v-256h125c35 0 64 12 88 36c25 25 37 54 37 89v6c0 35 -12 64 -37 88c-24 25 -53 37 -88 37z" />
    <glyph glyph-name="Gamma" unicode="&#x393;" horiz-adv-x="415" 
d="M125 0h-50v800h311v-47h-261v-753z" />
    <glyph glyph-name="increment" unicode="&#x394;" horiz-adv-x="503" 
d="M226 800h50l171 -800h-391zM387 47l-136 641l-135 -641h271z" />
    <glyph glyph-name="increment" unicode="&#x2206;" horiz-adv-x="503" 
d="M226 800h50l171 -800h-391zM387 47l-136 641l-135 -641h271z" />
    <glyph glyph-name="Epsilon" unicode="&#x395;" horiz-adv-x="420" 
d="M361 0h-286v800h286v-47h-236v-454h186v-48h-186v-204h236v-47z" />
    <glyph glyph-name="Zeta" unicode="&#x396;" horiz-adv-x="490" 
d="M357 753h-278v47h332v-47l-283 -706h287v-47h-340v47z" />
    <glyph glyph-name="Eta" unicode="&#x397;" horiz-adv-x="500" 
d="M425 0h-50v251h-250v-251h-50v800h50v-501h250v501h50v-800z" />
    <glyph glyph-name="Theta" unicode="&#x398;" horiz-adv-x="500" 
d="M75 171v458c0 49 17 90 51 124s75 51 124 51s90 -17 124 -51s51 -75 51 -124v-458c0 -49 -17 -90 -51 -124s-75 -51 -124 -51s-90 17 -124 51s-51 75 -51 124zM125 632v-464c0 -35 12 -64 36 -89c25 -24 54 -36 89 -36s64 12 88 36c25 25 37 54 37 89v464
c0 35 -12 64 -37 88c-24 25 -53 37 -88 37s-64 -12 -89 -37c-24 -24 -36 -53 -36 -88zM318 251h-139v48h139v-48z" />
    <glyph glyph-name="Iota" unicode="&#x399;" horiz-adv-x="213" 
d="M131 0h-50v800h50v-800z" />
    <glyph glyph-name="Kappa" unicode="&#x39a;" horiz-adv-x="500" 
d="M125 0h-50v800h50v-446l245 446h56l-178 -325l181 -475h-53l-160 418l-91 -167v-251z" />
    <glyph glyph-name="Lambda" unicode="&#x39b;" horiz-adv-x="503" 
d="M226 800h50l171 -800h-50l-146 688l-145 -688h-50z" />
    <glyph glyph-name="Mu" unicode="&#x39c;" horiz-adv-x="550" 
d="M425 800h50v-800h-50v703l-125 -207h-50l-125 207v-703h-50v800h50l150 -248z" />
    <glyph glyph-name="Nu" unicode="&#x39d;" horiz-adv-x="525" 
d="M450 0h-50l-275 666v-666h-50v800h50l275 -667v667h50v-800z" />
    <glyph glyph-name="Xi" unicode="&#x39e;" horiz-adv-x="361" 
d="M277 251h-193v48h193v-48zM332 0h-303v47h303v-47zM331 753h-300v47h300v-47z" />
    <glyph glyph-name="Omicron" unicode="&#x39f;" horiz-adv-x="500" 
d="M75 171v458c0 49 17 90 51 124s75 51 124 51s90 -17 124 -51s51 -75 51 -124v-458c0 -49 -17 -90 -51 -124s-75 -51 -124 -51s-90 17 -124 51s-51 75 -51 124zM125 632v-464c0 -35 12 -64 36 -89c25 -24 54 -36 89 -36s64 12 88 36c25 25 37 54 37 89v464
c0 35 -12 64 -37 88c-24 25 -53 37 -88 37s-64 -12 -89 -37c-24 -24 -36 -53 -36 -88z" />
    <glyph glyph-name="Pi" unicode="&#x3a0;" horiz-adv-x="500" 
d="M425 0h-50v753h-250v-753h-50v800h350v-800z" />
    <glyph glyph-name="Rho" unicode="&#x3a1;" horiz-adv-x="500" 
d="M125 0h-50v800h175c49 0 90 -17 124 -51s51 -75 51 -124v-199c0 -49 -17 -90 -51 -124s-75 -51 -124 -51h-125v-251zM250 753h-125v-454h125c35 0 64 12 88 36c25 25 37 54 37 89v204c0 35 -12 64 -37 88c-24 25 -53 37 -88 37z" />
    <glyph glyph-name="Sigma" unicode="&#x3a3;" horiz-adv-x="480" 
d="M415 0h-340v47l151 231l-147 475v47h332v-47h-280l140 -454v-48l-137 -204h281v-47z" />
    <glyph glyph-name="Tau" unicode="&#x3a4;" horiz-adv-x="401" 
d="M175 753h-139v47h329v-47h-140v-753h-50v753z" />
    <glyph glyph-name="Upsilon" unicode="&#x3a5;" horiz-adv-x="470" 
d="M260 0h-50v251l-154 549h52l127 -460l127 460h52l-154 -549v-251z" />
    <glyph glyph-name="Phi" unicode="&#x3a6;" horiz-adv-x="680" 
d="M240 689h75v111h50v-111h75c49 0 90 -17 124 -51s51 -75 51 -124v-228c0 -49 -17 -90 -51 -124s-75 -51 -124 -51h-75v-111h-50v111h-75c-49 0 -90 17 -124 51s-51 75 -51 124v228c0 49 17 90 51 124s75 51 124 51zM240 158h75v484h-75c-35 0 -64 -12 -89 -37
c-24 -24 -36 -53 -36 -88v-234c0 -35 12 -64 36 -89c25 -24 54 -36 89 -36zM440 642h-75v-484h75c35 0 64 12 88 36c25 25 37 54 37 89v234c0 35 -12 64 -37 88c-24 25 -53 37 -88 37z" />
    <glyph glyph-name="Chi" unicode="&#x3a7;" horiz-adv-x="500" 
d="M371 800h54l-148 -394l152 -406h-53l-126 334l-126 -334h-53l152 406l-148 394h54l121 -322z" />
    <glyph glyph-name="Psi" unicode="&#x3a8;" horiz-adv-x="525" 
d="M300 0h-50v246c-50 6 -92 28 -125 65c-33 38 -50 83 -50 134v355h50v-358c0 -75 53 -136 125 -148v506h50v-506c72 12 125 73 125 148v358h50v-355c0 -51 -17 -96 -50 -134c-33 -37 -75 -59 -125 -65v-246z" />
    <glyph glyph-name="Omega" unicode="&#x3a9;" horiz-adv-x="500" 
d="M272 47l95 278c5 14 8 28 8 43v264c0 35 -12 64 -37 88c-24 25 -53 37 -88 37s-64 -12 -89 -37c-24 -24 -36 -53 -36 -88v-264c0 -15 3 -29 8 -43l95 -278v-47h-153v47h101l-90 263c-7 20 -11 40 -11 61v258c0 49 17 90 51 124s75 51 124 51s90 -17 124 -51
s51 -75 51 -124v-258c0 -21 -4 -41 -11 -61l-90 -263h101v-47h-153v47z" />
    <glyph glyph-name="Omega" unicode="&#x2126;" horiz-adv-x="500" 
d="M272 47l95 278c5 14 8 28 8 43v264c0 35 -12 64 -37 88c-24 25 -53 37 -88 37s-64 -12 -89 -37c-24 -24 -36 -53 -36 -88v-264c0 -15 3 -29 8 -43l95 -278v-47h-153v47h101l-90 263c-7 20 -11 40 -11 61v258c0 49 17 90 51 124s75 51 124 51s90 -17 124 -51
s51 -75 51 -124v-258c0 -21 -4 -41 -11 -61l-90 -263h101v-47h-153v47z" />
    <glyph glyph-name="Iotadieresis" unicode="&#x3aa;" horiz-adv-x="213" 
d="M1 906c-24 24 15 63 37 37c26 -22 -13 -61 -37 -37zM171 906c-24 24 15 63 37 37c26 -22 -13 -61 -37 -37zM131 0h-50v800h50v-800z" />
    <glyph glyph-name="Upsilondieresis" unicode="&#x3ab;" horiz-adv-x="470" 
d="M260 0h-50v251l-154 549h52l127 -460l127 460h52l-154 -549v-251zM301 906c-24 24 15 63 37 37c26 -22 -13 -61 -37 -37zM131 906c-24 24 15 63 37 37c26 -22 -13 -61 -37 -37z" />
    <glyph glyph-name="alphatonos" unicode="&#x3ac;" horiz-adv-x="391" 
d="M170 700h50l115 -600h-47l-25 130h-136l-24 -130h-47zM254 277l-59 311l-59 -311h118zM219 850l-5 -82h-38c-3 45 -5 73 -5 82v75h48v-75z" />
    <glyph glyph-name="epsilontonos" unicode="&#x3ad;" horiz-adv-x="359" 
d="M300 100h-225v600h225v-47h-175v-309h150v-48h-150v-149h175v-47zM210 850l-5 -82h-38c-3 45 -5 73 -5 82v75h48v-75z" />
    <glyph glyph-name="etatonos" unicode="&#x3ae;" 
d="M325 100h-50v196h-150v-196h-50v600h50v-356h150v356h50v-600zM224 850l-5 -82h-38c-3 45 -5 73 -5 82v75h48v-75z" />
    <glyph glyph-name="iotatonos" unicode="&#x3af;" horiz-adv-x="213" 
d="M131 100h-50v600h50v-600zM129 850l-5 -82h-38c-3 45 -5 73 -5 82v75h48v-75z" />
    <glyph glyph-name="upsilondieresistonos" unicode="&#x3b0;" horiz-adv-x="381" 
d="M215 100h-50v196l-109 404h48l86 -324l87 324h48l-110 -404v-196zM214 850l-4 -82h-39c-3 45 -4 73 -4 82v75h47v-75zM65 806c-25 25 15 62 37 37c26 -22 -13 -61 -37 -37zM279 806c-22 25 13 62 38 37c26 -23 -13 -59 -38 -37z" />
    <glyph glyph-name="alpha" unicode="&#x3b1;" horiz-adv-x="391" 
d="M170 700h50l115 -600h-47l-25 130h-136l-24 -130h-47zM254 277l-59 311l-59 -311h118z" />
    <glyph glyph-name="beta" unicode="&#x3b2;" 
d="M200 100h-125v600h125c35 0 64 -12 88 -37c25 -24 37 -53 37 -88v-147c0 -43 -17 -77 -52 -102c35 -24 52 -58 52 -101c0 -35 -12 -64 -37 -89c-24 -24 -53 -36 -88 -36zM200 653h-75v-303h78c39 0 72 35 72 75v153c0 41 -34 75 -75 75zM203 303h-78v-156h75
c41 0 75 34 75 75v6c0 40 -33 72 -72 75z" />
    <glyph glyph-name="gamma" unicode="&#x3b3;" horiz-adv-x="329" 
d="M125 100h-50v600h225v-47h-175v-553z" />
    <glyph glyph-name="delta" unicode="&#x3b4;" horiz-adv-x="391" 
d="M170 700h50l115 -600h-279zM279 147l-84 441l-83 -441h167z" />
    <glyph glyph-name="epsilon" unicode="&#x3b5;" horiz-adv-x="359" 
d="M300 100h-225v600h225v-47h-175v-309h150v-48h-150v-149h175v-47z" />
    <glyph glyph-name="zeta" unicode="&#x3b6;" 
d="M269 653h-190v47h242v-47l-195 -506h199v-47h-250v47z" />
    <glyph glyph-name="eta" unicode="&#x3b7;" 
d="M325 100h-50v196h-150v-196h-50v600h50v-356h150v356h50v-600z" />
    <glyph glyph-name="theta" unicode="&#x3b8;" 
d="M75 221v358c0 35 12 64 36 88c25 25 54 37 89 37s64 -12 88 -37c25 -24 37 -53 37 -88v-358c0 -35 -12 -64 -37 -89c-24 -24 -53 -36 -88 -36s-64 12 -89 36c-24 25 -36 54 -36 89zM125 582v-233h150v233c0 41 -34 75 -75 75s-75 -34 -75 -75zM125 301v-83
c0 -41 34 -75 75 -75s75 34 75 75v83h-150z" />
    <glyph glyph-name="iota" unicode="&#x3b9;" horiz-adv-x="213" 
d="M131 100h-50v600h50v-600z" />
    <glyph glyph-name="kappa" unicode="&#x3ba;" 
d="M125 100h-50v600h50v-297l149 297h55l-122 -241l122 -359h-52l-101 296l-51 -100v-196z" />
    <glyph glyph-name="lambda" unicode="&#x3bb;" horiz-adv-x="391" 
d="M170 700h50l115 -600h-47l-93 488l-92 -488h-47z" />
    <glyph glyph-name="uni03BC" unicode="&#x3bc;" horiz-adv-x="450" 
d="M375 100h-50v494l-78 -144h-44l-78 144v-494h-50v600h50l100 -189l100 189h50v-600z" />
    <glyph glyph-name="nu" unicode="&#x3bd;" horiz-adv-x="425" 
d="M350 100h-50l-175 466v-466h-50v600h50l175 -467v467h50v-600z" />
    <glyph glyph-name="xi" unicode="&#x3be;" horiz-adv-x="365" 
d="M281 296h-197v48h197v-48zM306 100h-247v47h247v-47zM306 653h-247v47h247v-47z" />
    <glyph glyph-name="omicron" unicode="&#x3bf;" 
d="M75 221v358c0 35 12 64 36 88c25 25 54 37 89 37s64 -12 88 -37c25 -24 37 -53 37 -88v-358c0 -35 -12 -64 -37 -89c-24 -24 -53 -36 -88 -36s-64 12 -89 36c-24 25 -36 54 -36 89zM125 582v-364c0 -41 34 -75 75 -75s75 34 75 75v364c0 41 -34 75 -75 75
s-75 -34 -75 -75z" />
    <glyph glyph-name="pi" unicode="&#x3c0;" 
d="M325 100h-50v553h-150v-553h-50v600h250v-600z" />
    <glyph glyph-name="rho" unicode="&#x3c1;" 
d="M125 100h-50v600h125c35 0 64 -12 88 -37c25 -24 37 -53 37 -88v-154c0 -34 -12 -63 -37 -88c-24 -25 -53 -37 -88 -37h-75v-196zM200 653h-75v-309h75c41 0 75 34 75 75v159c0 41 -34 75 -75 75z" />
    <glyph glyph-name="uni03C2" unicode="&#x3c2;" 
d="M321 700v-47h-186l104 -302v-47l-94 -157h180v-47h-250v47l119 183l-115 323v47h242z" />
    <glyph glyph-name="sigma" unicode="&#x3c3;" 
d="M321 700v-47h-186l104 -302v-47l-94 -157h180v-47h-250v47l119 183l-115 323v47h242z" />
    <glyph glyph-name="tau" unicode="&#x3c4;" horiz-adv-x="301" 
d="M126 653h-90v47h229v-47h-89v-553h-50v553z" />
    <glyph glyph-name="upsilon" unicode="&#x3c5;" horiz-adv-x="381" 
d="M215 100h-50v196l-109 404h48l86 -324l87 324h48l-110 -404v-196z" />
    <glyph glyph-name="phi" unicode="&#x3c6;" horiz-adv-x="540" 
d="M295 100h-50v93h-55c-35 0 -64 12 -89 36c-24 25 -36 54 -36 89v164c0 35 12 64 36 88c25 25 54 37 89 37h55v93h50v-93h55c35 0 64 -12 88 -37c25 -24 37 -53 37 -88v-164c0 -35 -12 -64 -37 -89c-24 -24 -53 -36 -88 -36h-55v-93zM190 240h55v320h-55
c-41 0 -75 -34 -75 -75v-170c0 -41 34 -75 75 -75zM350 560h-55v-320h55c41 0 75 34 75 75v170c0 41 -34 75 -75 75z" />
    <glyph glyph-name="chi" unicode="&#x3c7;" 
d="M277 700h52l-101 -301l101 -299h-53l-74 220l-74 -220h-53l100 299l-100 301h52l75 -222z" />
    <glyph glyph-name="psi" unicode="&#x3c8;" horiz-adv-x="525" 
d="M287 100h-50v149c-47 6 -85 26 -116 61s-46 77 -46 124v266h50v-269c0 -67 47 -123 112 -135v404h50v-404c65 12 113 68 113 135v269h50v-266c0 -47 -16 -89 -47 -124s-69 -55 -116 -61v-149z" />
    <glyph glyph-name="omega" unicode="&#x3c9;" 
d="M125 582v-214c0 -4 1 -10 2 -18l51 -203v-47h-103v47h52l-49 200c-2 8 -3 16 -3 24v208c0 35 12 64 36 88c25 25 54 37 89 37s64 -12 88 -37c25 -24 37 -53 37 -88v-208c0 -8 -1 -16 -3 -24l-49 -200h52v-47h-103v47l51 203c1 8 2 14 2 18v214c0 41 -34 75 -75 75
s-75 -34 -75 -75z" />
    <glyph glyph-name="iotadieresis" unicode="&#x3ca;" horiz-adv-x="213" 
d="M131 100h-50v600h50v-600zM12 806c-24 24 15 63 37 37c26 -22 -13 -61 -37 -37zM162 806c-24 24 15 63 37 37c26 -22 -13 -61 -37 -37z" />
    <glyph glyph-name="upsilondieresis" unicode="&#x3cb;" horiz-adv-x="381" 
d="M215 100h-50v196l-109 404h48l86 -324l87 324h48l-110 -404v-196zM247 806c-24 24 15 63 37 37c26 -22 -13 -61 -37 -37zM97 806c-24 24 15 63 37 37c26 -22 -13 -61 -37 -37z" />
    <glyph glyph-name="omicrontonos" unicode="&#x3cc;" 
d="M75 221v358c0 35 12 64 36 88c25 25 54 37 89 37s64 -12 88 -37c25 -24 37 -53 37 -88v-358c0 -35 -12 -64 -37 -89c-24 -24 -53 -36 -88 -36s-64 12 -89 36c-24 25 -36 54 -36 89zM125 582v-364c0 -41 34 -75 75 -75s75 34 75 75v364c0 41 -34 75 -75 75
s-75 -34 -75 -75zM224 850l-5 -82h-38c-3 45 -5 73 -5 82v75h48v-75z" />
    <glyph glyph-name="upsilontonos" unicode="&#x3cd;" horiz-adv-x="381" 
d="M215 100h-50v196l-109 404h48l86 -324l87 324h48l-110 -404v-196zM214 850l-5 -82h-38c-3 45 -5 73 -5 82v75h48v-75z" />
    <glyph glyph-name="omegatonos" unicode="&#x3ce;" 
d="M125 582v-214c0 -4 1 -10 2 -18l51 -203v-47h-103v47h52l-49 200c-2 8 -3 16 -3 24v208c0 35 12 64 36 88c25 25 54 37 89 37s64 -12 88 -37c25 -24 37 -53 37 -88v-208c0 -8 -1 -16 -3 -24l-49 -200h52v-47h-103v47l51 203c1 8 2 14 2 18v214c0 41 -34 75 -75 75
s-75 -34 -75 -75zM224 850l-5 -82h-38c-3 45 -5 73 -5 82v75h48v-75z" />
    <glyph glyph-name="afii10023" unicode="&#x401;" horiz-adv-x="420" 
d="M361 0h-286v800h286v-47h-236v-454h186v-48h-186v-204h236v-47zM113 906c-24 24 15 63 37 37c26 -22 -13 -61 -37 -37zM283 906c-24 24 15 63 37 37c26 -22 -13 -61 -37 -37z" />
    <glyph glyph-name="afii10051" unicode="&#x402;" horiz-adv-x="600" 
d="M175 753h-139v47h329v-47h-140v-251c33 35 75 52 125 52c49 0 90 -17 124 -51s51 -75 51 -124v-204c0 -49 -17 -90 -51 -124s-75 -51 -124 -51h-25v47h25c35 0 64 12 88 36c25 25 37 54 37 89v210c0 35 -12 64 -37 88c-24 25 -53 37 -88 37c-34 0 -63 -12 -87 -35
s-37 -52 -38 -85v-387h-50v753z" />
    <glyph glyph-name="afii10052" unicode="&#x403;" horiz-adv-x="415" 
d="M311 931l-162 -51l-13 36l161 57zM125 0h-50v800h311v-47h-261v-753z" />
    <glyph glyph-name="afii10053" unicode="&#x404;" horiz-adv-x="500" 
d="M125 632v-223h186v-48h-186v-193c0 -35 12 -64 36 -89c25 -24 54 -36 89 -36s64 12 88 36c25 25 37 54 37 89v39h50v-36c0 -49 -17 -90 -51 -124s-75 -51 -124 -51s-90 17 -124 51s-51 75 -51 124v458c0 49 17 90 51 124s75 51 124 51s90 -17 124 -51s51 -75 51 -124v-36
h-50v39c0 35 -12 64 -37 88c-24 25 -53 37 -88 37s-64 -12 -89 -37c-24 -24 -36 -53 -36 -88z" />
    <glyph glyph-name="afii10054" unicode="&#x405;" horiz-adv-x="490" 
d="M70 171v36h50v-39c0 -35 12 -64 36 -89c25 -24 54 -36 89 -36s64 12 88 36c25 25 37 54 37 89v3c0 29 -10 55 -29 78l-217 261c-33 32 -50 72 -50 119c0 49 16 90 49 124s74 51 122 51c47 0 88 -17 121 -51s50 -75 50 -124v-36h-50v39c0 35 -12 64 -36 88
c-23 25 -52 37 -85 37c-34 0 -63 -12 -86 -37c-23 -24 -35 -53 -35 -88v-3c0 -31 10 -57 31 -80l217 -261c32 -32 48 -71 48 -117c0 -49 -17 -90 -51 -124s-75 -51 -124 -51s-90 17 -124 51s-51 75 -51 124z" />
    <glyph glyph-name="afii10055" unicode="&#x406;" horiz-adv-x="213" 
d="M131 0h-50v800h50v-800z" />
    <glyph glyph-name="afii10056" unicode="&#x407;" horiz-adv-x="213" 
d="M12 906c-24 24 15 63 37 37c26 -22 -13 -61 -37 -37zM162 906c-24 24 15 63 37 37c26 -22 -13 -61 -37 -37zM131 0h-50v800h50v-800z" />
    <glyph glyph-name="afii10057" unicode="&#x408;" horiz-adv-x="200" 
d="M0 -250h-46v47h46c41 0 75 34 75 75v928h50v-925c0 -35 -12 -64 -37 -88c-24 -25 -53 -37 -88 -37z" />
    <glyph glyph-name="afii10058" unicode="&#x409;" horiz-adv-x="744" 
d="M54 0h-22v47h22c41 0 75 34 75 75v678h300v-450h75c48 0 89 -17 123 -51c35 -34 52 -75 52 -124s-17 -90 -52 -124c-34 -34 -75 -51 -123 -51h-125v753h-200v-628c0 -35 -12 -64 -37 -89c-25 -24 -54 -36 -88 -36zM504 303h-75v-256h75c34 0 63 12 88 36
c25 25 37 54 37 89v6c0 35 -12 64 -37 88c-25 25 -54 37 -88 37z" />
    <glyph glyph-name="afii10059" unicode="&#x40a;" horiz-adv-x="690" 
d="M450 0h-125v303h-200v-303h-50v800h50v-450h200v450h50v-450h75c49 0 90 -17 124 -51s51 -75 51 -124s-17 -90 -51 -124s-75 -51 -124 -51zM450 303h-75v-256h75c35 0 64 12 88 36c25 25 37 54 37 89v6c0 35 -12 64 -37 88c-24 25 -53 37 -88 37z" />
    <glyph glyph-name="afii10060" unicode="&#x40b;" horiz-adv-x="600" 
d="M175 753h-139v47h329v-47h-140v-251c33 35 75 52 125 52c49 0 90 -17 124 -51s51 -75 51 -124v-379h-50v382c0 35 -12 64 -37 88c-24 25 -53 37 -88 37c-34 0 -63 -12 -87 -35s-37 -52 -38 -85v-387h-50v753z" />
    <glyph glyph-name="afii10061" unicode="&#x40c;" horiz-adv-x="500" 
d="M125 0h-50v800h50v-446l245 446h56l-178 -325l181 -475h-53l-160 418l-91 -167v-251zM345 931l-162 -51l-13 36l161 57z" />
    <glyph glyph-name="afii10062" unicode="&#x40e;" horiz-adv-x="468" 
d="M123 975v14h41v-14c0 -32 28 -56 71 -56s71 24 71 56v14h41v-14c0 -56 -39 -97 -112 -97s-112 41 -112 97zM207 238l-146 562h51l122 -466l127 466h51l-193 -710c-15 -53 -66 -90 -119 -90h-41v47h41c31 0 62 23 70 54z" />
    <glyph glyph-name="afii10145" unicode="&#x40f;" horiz-adv-x="500" 
d="M275 -150h-50v150h-150v800h50v-753h250v753h50v-800h-150v-150z" />
    <glyph glyph-name="afii10017" unicode="&#x410;" horiz-adv-x="503" 
d="M226 800h50l171 -800h-50l-32 150h-228l-31 -150h-50zM355 197l-104 491l-104 -491h208z" />
    <glyph glyph-name="afii10018" unicode="&#x411;" horiz-adv-x="500" 
d="M250 0h-175v800h332v-47h-282v-403h125c49 0 90 -17 124 -51s51 -75 51 -124s-17 -90 -51 -124s-75 -51 -124 -51zM250 303h-125v-256h125c35 0 64 12 88 36c25 25 37 54 37 89v6c0 35 -12 64 -37 88c-24 25 -53 37 -88 37z" />
    <glyph glyph-name="afii10019" unicode="&#x412;" horiz-adv-x="500" 
d="M250 0h-175v800h175c49 0 90 -17 124 -51s51 -75 51 -124v-147c0 -64 -34 -121 -87 -152c53 -31 87 -87 87 -151c0 -49 -17 -90 -51 -124s-75 -51 -124 -51zM250 753h-125v-403h130c33 1 62 14 85 38s35 53 35 87v153c0 35 -12 64 -37 88c-24 25 -53 37 -88 37zM250 303
h-125v-256h125c35 0 64 12 88 36c25 25 37 54 37 89v6c0 35 -12 64 -37 88c-24 25 -53 37 -88 37z" />
    <glyph glyph-name="afii10020" unicode="&#x413;" horiz-adv-x="415" 
d="M125 0h-50v800h311v-47h-261v-753z" />
    <glyph glyph-name="afii10021" unicode="&#x414;" horiz-adv-x="620" 
d="M65 -125v172h65l150 753h200v-753h75v-172h-50v125h-390v-125h-50zM430 753h-108l-142 -706h250v706z" />
    <glyph glyph-name="afii10022" unicode="&#x415;" horiz-adv-x="420" 
d="M361 0h-286v800h286v-47h-236v-454h186v-48h-186v-204h236v-47z" />
    <glyph glyph-name="afii10024" unicode="&#x416;" horiz-adv-x="800" 
d="M729 0h-53l-160 418l-91 -167v-251h-50v251l-92 167l-159 -418h-53l181 475l-178 325h56l245 -446v446h50v-446l245 446h56l-178 -325z" />
    <glyph glyph-name="afii10025" unicode="&#x417;" horiz-adv-x="500" 
d="M375 557v75c0 35 -12 64 -37 88c-24 25 -53 37 -88 37s-64 -12 -89 -37c-24 -24 -36 -53 -36 -88v-39h-50v36c0 49 17 90 51 124s75 51 124 51s90 -17 124 -51s51 -75 51 -124v-69c0 -64 -34 -121 -87 -152c53 -31 87 -87 87 -151v-86c0 -49 -17 -90 -51 -124
s-75 -51 -124 -51s-90 17 -124 51s-51 75 -51 124v36h50v-39c0 -35 12 -64 36 -89c25 -24 54 -36 89 -36s64 12 88 36c25 25 37 54 37 89v92c0 33 -12 62 -35 86c-23 25 -52 38 -85 39h-76v47h71c35 0 64 12 88 36c25 25 37 54 37 89z" />
    <glyph glyph-name="afii10026" unicode="&#x418;" horiz-adv-x="525" 
d="M75 800h50v-667l275 667h50v-800h-50v666l-275 -666h-50v800z" />
    <glyph glyph-name="afii10027" unicode="&#x419;" horiz-adv-x="525" 
d="M75 800h50v-667l275 667h50v-800h-50v666l-275 -666h-50v800zM150 975v14h41v-14c0 -32 28 -56 71 -56s71 24 71 56v14h41v-14c0 -56 -39 -97 -112 -97s-112 41 -112 97z" />
    <glyph glyph-name="afii10028" unicode="&#x41a;" horiz-adv-x="500" 
d="M125 0h-50v800h50v-446l245 446h56l-178 -325l181 -475h-53l-160 418l-91 -167v-251z" />
    <glyph glyph-name="afii10029" unicode="&#x41b;" horiz-adv-x="554" 
d="M54 0h-22v47h22c41 0 75 34 75 75v678h350v-800h-50v753h-250v-628c0 -35 -12 -64 -37 -89c-25 -24 -54 -36 -88 -36z" />
    <glyph glyph-name="afii10030" unicode="&#x41c;" horiz-adv-x="550" 
d="M425 800h50v-800h-50v703l-125 -207h-50l-125 207v-703h-50v800h50l150 -248z" />
    <glyph glyph-name="afii10031" unicode="&#x41d;" horiz-adv-x="500" 
d="M425 0h-50v251h-250v-251h-50v800h50v-501h250v501h50v-800z" />
    <glyph glyph-name="afii10032" unicode="&#x41e;" horiz-adv-x="500" 
d="M75 171v458c0 49 17 90 51 124s75 51 124 51s90 -17 124 -51s51 -75 51 -124v-458c0 -49 -17 -90 -51 -124s-75 -51 -124 -51s-90 17 -124 51s-51 75 -51 124zM125 632v-464c0 -35 12 -64 36 -89c25 -24 54 -36 89 -36s64 12 88 36c25 25 37 54 37 89v464
c0 35 -12 64 -37 88c-24 25 -53 37 -88 37s-64 -12 -89 -37c-24 -24 -36 -53 -36 -88z" />
    <glyph glyph-name="afii10033" unicode="&#x41f;" horiz-adv-x="500" 
d="M425 0h-50v753h-250v-753h-50v800h350v-800z" />
    <glyph glyph-name="afii10034" unicode="&#x420;" horiz-adv-x="500" 
d="M125 0h-50v800h175c49 0 90 -17 124 -51s51 -75 51 -124v-199c0 -49 -17 -90 -51 -124s-75 -51 -124 -51h-125v-251zM250 753h-125v-454h125c35 0 64 12 88 36c25 25 37 54 37 89v204c0 35 -12 64 -37 88c-24 25 -53 37 -88 37z" />
    <glyph glyph-name="afii10035" unicode="&#x421;" horiz-adv-x="500" 
d="M125 632v-464c0 -35 12 -64 36 -89c25 -24 54 -36 89 -36s64 12 88 36c25 25 37 54 37 89v39h50v-36c0 -49 -17 -90 -51 -124s-75 -51 -124 -51s-90 17 -124 51s-51 75 -51 124v458c0 49 17 90 51 124s75 51 124 51s90 -17 124 -51s51 -75 51 -124v-36h-50v39
c0 35 -12 64 -37 88c-24 25 -53 37 -88 37s-64 -12 -89 -37c-24 -24 -36 -53 -36 -88z" />
    <glyph glyph-name="afii10036" unicode="&#x422;" horiz-adv-x="401" 
d="M175 753h-139v47h329v-47h-140v-753h-50v753z" />
    <glyph glyph-name="afii10037" unicode="&#x423;" horiz-adv-x="468" 
d="M207 238l-146 562h51l122 -466l127 466h51l-193 -710c-15 -53 -66 -90 -119 -90h-41v47h41c31 0 62 23 70 54z" />
    <glyph glyph-name="afii10038" unicode="&#x424;" horiz-adv-x="680" 
d="M240 689h75v111h50v-111h75c49 0 90 -17 124 -51s51 -75 51 -124v-228c0 -49 -17 -90 -51 -124s-75 -51 -124 -51h-75v-111h-50v111h-75c-49 0 -90 17 -124 51s-51 75 -51 124v228c0 49 17 90 51 124s75 51 124 51zM240 158h75v484h-75c-35 0 -64 -12 -89 -37
c-24 -24 -36 -53 -36 -88v-234c0 -35 12 -64 36 -89c25 -24 54 -36 89 -36zM440 642h-75v-484h75c35 0 64 12 88 36c25 25 37 54 37 89v234c0 35 -12 64 -37 88c-24 25 -53 37 -88 37z" />
    <glyph glyph-name="afii10039" unicode="&#x425;" horiz-adv-x="500" 
d="M371 800h54l-148 -394l152 -406h-53l-126 334l-126 -334h-53l152 406l-148 394h54l121 -322z" />
    <glyph glyph-name="afii10040" unicode="&#x426;" horiz-adv-x="575" 
d="M475 0h-400v800h50v-753h250v753h50v-753h100v-172h-50v125z" />
    <glyph glyph-name="afii10041" unicode="&#x427;" horiz-adv-x="500" 
d="M425 0h-50v301c-35 -35 -76 -52 -125 -52s-90 17 -124 51s-51 75 -51 124v376h50v-379c0 -35 12 -64 36 -89c25 -24 54 -36 89 -36s64 12 88 36c25 25 37 54 37 89v379h50v-800z" />
    <glyph glyph-name="afii10042" unicode="&#x428;" horiz-adv-x="650" 
d="M575 0h-500v800h50v-753h175v753h50v-753h175v753h50v-800z" />
    <glyph glyph-name="afii10043" unicode="&#x429;" horiz-adv-x="725" 
d="M625 0h-550v800h50v-753h175v753h50v-753h175v753h50v-753h100v-172h-50v125z" />
    <glyph glyph-name="afii10044" unicode="&#x42a;" horiz-adv-x="544" 
d="M304 0h-175v753h-97v47h147v-450h125c48 0 89 -17 123 -51c35 -34 52 -75 52 -124s-17 -90 -52 -124c-34 -34 -75 -51 -123 -51zM304 303h-125v-256h125c34 0 63 12 88 36c25 25 37 54 37 89v6c0 35 -12 64 -37 88c-25 25 -54 37 -88 37z" />
    <glyph glyph-name="afii10045" unicode="&#x42b;" horiz-adv-x="675" 
d="M250 0h-175v800h50v-450h125c49 0 90 -17 124 -51s51 -75 51 -124s-17 -90 -51 -124s-75 -51 -124 -51zM250 303h-125v-256h125c35 0 64 12 88 36c25 25 37 54 37 89v6c0 35 -12 64 -37 88c-24 25 -53 37 -88 37zM600 0h-50v800h50v-800z" />
    <glyph glyph-name="afii10046" unicode="&#x42c;" horiz-adv-x="500" 
d="M250 0h-175v800h50v-450h125c49 0 90 -17 124 -51s51 -75 51 -124s-17 -90 -51 -124s-75 -51 -124 -51zM250 303h-125v-256h125c35 0 64 12 88 36c25 25 37 54 37 89v6c0 35 -12 64 -37 88c-24 25 -53 37 -88 37z" />
    <glyph glyph-name="afii10047" unicode="&#x42d;" horiz-adv-x="500" 
d="M375 168v193h-186v48h186v223c0 35 -12 64 -37 88c-24 25 -53 37 -88 37s-64 -12 -89 -37c-24 -24 -36 -53 -36 -88v-39h-50v36c0 49 17 90 51 124s75 51 124 51s90 -17 124 -51s51 -75 51 -124v-458c0 -49 -17 -90 -51 -124s-75 -51 -124 -51s-90 17 -124 51
s-51 75 -51 124v36h50v-39c0 -35 12 -64 36 -89c25 -24 54 -36 89 -36s64 12 88 36c25 25 37 54 37 89z" />
    <glyph glyph-name="afii10048" unicode="&#x42e;" horiz-adv-x="675" 
d="M250 171v80h-125v-251h-50v800h50v-501h125v330c0 49 17 90 51 124s75 51 124 51s90 -17 124 -51s51 -75 51 -124v-458c0 -49 -17 -90 -51 -124s-75 -51 -124 -51s-90 17 -124 51s-51 75 -51 124zM300 632v-464c0 -35 12 -64 36 -89c25 -24 54 -36 89 -36s64 12 88 36
c25 25 37 54 37 89v464c0 35 -12 64 -37 88c-24 25 -53 37 -88 37s-64 -12 -89 -37c-24 -24 -36 -53 -36 -88z" />
    <glyph glyph-name="afii10049" unicode="&#x42f;" horiz-adv-x="500" 
d="M425 800v-800h-50v251h-125c-35 0 -64 -12 -89 -37c-24 -24 -36 -53 -36 -88v-126h-50v124c0 63 33 119 86 150c-53 32 -86 88 -86 152v199c0 49 17 90 51 124s75 51 124 51h175zM245 299h130v454h-125c-35 0 -64 -12 -89 -37c-24 -24 -36 -53 -36 -88v-204
c0 -35 12 -64 35 -88c23 -23 52 -36 85 -37z" />
    <glyph glyph-name="afii10065" unicode="&#x430;" horiz-adv-x="391" 
d="M170 700h50l115 -600h-47l-25 130h-136l-24 -130h-47zM254 277l-59 311l-59 -311h118z" />
    <glyph glyph-name="afii10066" unicode="&#x431;" 
d="M200 100h-125v600h232v-47h-182v-303h75c35 0 64 -12 88 -37c25 -24 37 -53 37 -88s-12 -64 -37 -89c-24 -24 -53 -36 -88 -36zM200 303h-75v-156h75c41 0 75 34 75 75v6c0 41 -34 75 -75 75z" />
    <glyph glyph-name="afii10067" unicode="&#x432;" 
d="M200 100h-125v600h125c35 0 64 -12 88 -37c25 -24 37 -53 37 -88v-147c0 -43 -17 -77 -52 -102c35 -24 52 -58 52 -101c0 -35 -12 -64 -37 -89c-24 -24 -53 -36 -88 -36zM200 653h-75v-303h78c39 0 72 35 72 75v153c0 41 -34 75 -75 75zM203 303h-78v-156h75
c41 0 75 34 75 75v6c0 40 -33 72 -72 75z" />
    <glyph glyph-name="afii10068" unicode="&#x433;" horiz-adv-x="329" 
d="M125 100h-50v600h225v-47h-175v-553z" />
    <glyph glyph-name="afii10069" unicode="&#x434;" horiz-adv-x="520" 
d="M65 0v147h65l75 553h175v-553h75v-147h-50v100h-290v-100h-50zM180 147h150v506h-82z" />
    <glyph glyph-name="afii10070" unicode="&#x435;" horiz-adv-x="359" 
d="M300 100h-225v600h225v-47h-175v-309h150v-48h-150v-149h175v-47z" />
    <glyph glyph-name="afii10072" unicode="&#x436;" horiz-adv-x="600" 
d="M529 100h-52l-101 296l-51 -100v-196h-50v196l-51 100l-101 -296h-52l121 359l-121 241h55l149 -297v297h50v-297l149 297h55l-122 -241z" />
    <glyph glyph-name="afii10073" unicode="&#x437;" 
d="M275 499v83c0 41 -34 75 -75 75s-75 -34 -75 -75v-46h-50v43c0 35 12 64 36 88c25 25 54 37 89 37s64 -12 88 -37c25 -24 37 -53 37 -88v-78c0 -43 -17 -76 -52 -101c35 -25 52 -58 52 -101v-78c0 -35 -12 -64 -37 -89c-24 -24 -53 -36 -88 -36s-64 12 -89 36
c-24 25 -36 54 -36 89v43h50v-46c0 -41 34 -75 75 -75s75 34 75 75v83c0 41 -34 75 -75 75h-50v48h50c41 0 75 34 75 75z" />
    <glyph glyph-name="afii10074" unicode="&#x438;" horiz-adv-x="425" 
d="M300 700h50v-600h-50v466l-175 -466h-50v600h50v-467z" />
    <glyph glyph-name="afii10075" unicode="&#x439;" horiz-adv-x="425" 
d="M300 700h50v-600h-50v466l-175 -466h-50v600h50v-467zM100 875v14h41v-14c0 -32 28 -56 71 -56s71 24 71 56v14h41v-14c0 -56 -39 -97 -112 -97s-112 41 -112 97z" />
    <glyph glyph-name="afii10076" unicode="&#x43a;" 
d="M125 100h-50v600h50v-297l149 297h55l-122 -241l122 -359h-52l-101 296l-51 -100v-196z" />
    <glyph glyph-name="afii10077" unicode="&#x43b;" horiz-adv-x="425" 
d="M25 100h-14v47h14c41 0 75 34 75 75v478h250v-600h-50v553h-150v-428c0 -35 -12 -64 -37 -89c-24 -24 -53 -36 -88 -36z" />
    <glyph glyph-name="afii10078" unicode="&#x43c;" horiz-adv-x="450" 
d="M375 100h-50v494l-78 -144h-44l-78 144v-494h-50v600h50l100 -189l100 189h50v-600z" />
    <glyph glyph-name="afii10079" unicode="&#x43d;" 
d="M325 100h-50v196h-150v-196h-50v600h50v-356h150v356h50v-600z" />
    <glyph glyph-name="afii10080" unicode="&#x43e;" 
d="M75 221v358c0 35 12 64 36 88c25 25 54 37 89 37s64 -12 88 -37c25 -24 37 -53 37 -88v-358c0 -35 -12 -64 -37 -89c-24 -24 -53 -36 -88 -36s-64 12 -89 36c-24 25 -36 54 -36 89zM125 582v-364c0 -41 34 -75 75 -75s75 34 75 75v364c0 41 -34 75 -75 75
s-75 -34 -75 -75z" />
    <glyph glyph-name="afii10081" unicode="&#x43f;" 
d="M325 100h-50v553h-150v-553h-50v600h250v-600z" />
    <glyph glyph-name="afii10082" unicode="&#x440;" 
d="M125 100h-50v600h125c35 0 64 -12 88 -37c25 -24 37 -53 37 -88v-154c0 -34 -12 -63 -37 -88c-24 -25 -53 -37 -88 -37h-75v-196zM200 653h-75v-309h75c41 0 75 34 75 75v159c0 41 -34 75 -75 75z" />
    <glyph glyph-name="afii10083" unicode="&#x441;" 
d="M125 582v-364c0 -41 34 -75 75 -75s75 34 75 75v53h50v-50c0 -35 -12 -64 -37 -89c-24 -24 -53 -36 -88 -36s-64 12 -89 36c-24 25 -36 54 -36 89v358c0 35 12 64 36 88c25 25 54 37 89 37s64 -12 88 -37c25 -24 37 -53 37 -88v-50h-50v53c0 41 -34 75 -75 75
s-75 -34 -75 -75z" />
    <glyph glyph-name="afii10084" unicode="&#x442;" horiz-adv-x="301" 
d="M126 653h-90v47h229v-47h-89v-553h-50v553z" />
    <glyph glyph-name="afii10085" unicode="&#x443;" horiz-adv-x="369" 
d="M92 100h-38v50h38c17 0 35 13 39 29l33 120l-108 401h48l86 -324l87 324h48l-146 -533c-11 -36 -48 -67 -87 -67z" />
    <glyph glyph-name="afii10086" unicode="&#x444;" horiz-adv-x="540" 
d="M295 100h-50v93h-55c-35 0 -64 12 -89 36c-24 25 -36 54 -36 89v164c0 35 12 64 36 88c25 25 54 37 89 37h55v93h50v-93h55c35 0 64 -12 88 -37c25 -24 37 -53 37 -88v-164c0 -35 -12 -64 -37 -89c-24 -24 -53 -36 -88 -36h-55v-93zM190 240h55v320h-55
c-41 0 -75 -34 -75 -75v-170c0 -41 34 -75 75 -75zM350 560h-55v-320h55c41 0 75 34 75 75v170c0 41 -34 75 -75 75z" />
    <glyph glyph-name="afii10087" unicode="&#x445;" 
d="M277 700h52l-101 -301l101 -299h-53l-74 220l-74 -220h-53l100 299l-100 301h52l75 -222z" />
    <glyph glyph-name="afii10088" unicode="&#x446;" horiz-adv-x="515" 
d="M400 100h-325v600h50v-553h175v553h50v-553h100v-172h-50v125z" />
    <glyph glyph-name="afii10089" unicode="&#x447;" 
d="M325 100h-50v217c-22 -17 -47 -25 -75 -25c-35 0 -64 12 -89 36c-24 25 -36 54 -36 89v283h50v-286c0 -41 34 -75 75 -75s75 34 75 75v286h50v-600z" />
    <glyph glyph-name="afii10090" unicode="&#x448;" horiz-adv-x="600" 
d="M525 100h-450v600h50v-553h150v553h50v-553h150v553h50v-600z" />
    <glyph glyph-name="afii10091" unicode="&#x449;" horiz-adv-x="665" 
d="M550 100h-475v600h50v-553h150v553h50v-553h150v553h50v-553h75v-172h-50v125z" />
    <glyph glyph-name="afii10092" unicode="&#x44a;" horiz-adv-x="415" 
d="M100 653h-89v47h139v-350h75c35 0 64 -12 88 -37c25 -24 37 -53 37 -88s-12 -64 -37 -89c-24 -24 -53 -36 -88 -36h-125v553zM225 303h-75v-156h75c41 0 75 34 75 75v6c0 41 -34 75 -75 75z" />
    <glyph glyph-name="afii10093" unicode="&#x44b;" horiz-adv-x="556" 
d="M200 100h-125v600h50v-350h75c35 0 64 -12 88 -37c25 -24 37 -53 37 -88s-12 -64 -37 -89c-24 -24 -53 -36 -88 -36zM475 100h-50v600h50v-600zM200 303h-75v-156h75c41 0 75 34 75 75v6c0 41 -34 75 -75 75z" />
    <glyph glyph-name="afii10094" unicode="&#x44c;" horiz-adv-x="390" 
d="M200 100h-125v600h50v-350h75c35 0 64 -12 88 -37c25 -24 37 -53 37 -88s-12 -64 -37 -89c-24 -24 -53 -36 -88 -36zM200 303h-75v-156h75c41 0 75 34 75 75v6c0 41 -34 75 -75 75z" />
    <glyph glyph-name="afii10095" unicode="&#x44d;" 
d="M275 373h-150v47h150v162c0 41 -34 75 -75 75s-75 -34 -75 -75v-53h-50v50c0 35 12 64 36 88c25 25 54 37 89 37s64 -12 88 -37c25 -24 37 -53 37 -88v-358c0 -35 -12 -64 -37 -89c-24 -24 -53 -36 -88 -36s-64 12 -89 36c-24 25 -36 54 -36 89v50h50v-53
c0 -41 34 -75 75 -75s75 34 75 75v155z" />
    <glyph glyph-name="afii10096" unicode="&#x44e;" horiz-adv-x="565" 
d="M240 221v75h-115v-196h-50v600h50v-356h115v235c0 35 12 64 36 88c25 25 54 37 89 37s64 -12 88 -37c25 -24 37 -53 37 -88v-358c0 -35 -12 -64 -37 -89c-24 -24 -53 -36 -88 -36s-64 12 -89 36c-24 25 -36 54 -36 89zM290 582v-364c0 -41 34 -75 75 -75s75 34 75 75v364
c0 41 -34 75 -75 75s-75 -34 -75 -75z" />
    <glyph glyph-name="afii10097" unicode="&#x44f;" 
d="M200 700h125v-600h-50v196h-75c-41 0 -75 -34 -75 -75v-121h-50v119c0 42 17 76 51 101c-34 25 -51 59 -51 101v154c0 35 12 64 36 88c25 25 54 37 89 37zM200 344h75v309h-75c-41 0 -75 -34 -75 -75v-159c0 -41 34 -75 75 -75z" />
    <glyph glyph-name="afii10071" unicode="&#x451;" horiz-adv-x="359" 
d="M300 100h-225v600h225v-47h-175v-309h150v-48h-150v-149h175v-47zM92 806c-24 24 15 63 37 37c26 -22 -13 -61 -37 -37zM242 806c-24 24 15 63 37 37c26 -22 -13 -61 -37 -37z" />
    <glyph glyph-name="afii10099" unicode="&#x452;" horiz-adv-x="451" 
d="M126 653h-90v47h229v-47h-89v-174c23 17 48 25 75 25c35 0 64 -12 88 -37c25 -24 37 -53 37 -88v-154c0 -35 -12 -64 -37 -89c-24 -24 -53 -36 -88 -36h-10v47h10c41 0 75 34 75 75v160c0 41 -34 75 -75 75s-75 -34 -75 -75v-282h-50v553z" />
    <glyph glyph-name="afii10100" unicode="&#x453;" horiz-adv-x="329" 
d="M274 831l-162 -51l-13 36l161 57zM125 100h-50v600h225v-47h-175v-553z" />
    <glyph glyph-name="afii10101" unicode="&#x454;" 
d="M125 373v-155c0 -41 34 -75 75 -75s75 34 75 75v53h50v-50c0 -35 -12 -64 -37 -89c-24 -24 -53 -36 -88 -36s-64 12 -89 36c-24 25 -36 54 -36 89v358c0 35 12 64 36 88c25 25 54 37 89 37s64 -12 88 -37c25 -24 37 -53 37 -88v-50h-50v53c0 41 -34 75 -75 75
s-75 -34 -75 -75v-162h150v-47h-150z" />
    <glyph glyph-name="afii10102" unicode="&#x455;" horiz-adv-x="390" 
d="M70 221v46h50v-49c0 -41 34 -75 75 -75s75 34 75 75v3c0 15 -3 27 -10 36l-163 248c-18 21 -27 46 -27 74c0 35 12 64 36 88c25 25 54 37 89 37s64 -12 88 -37c25 -24 37 -53 37 -88v-46h-50v49c0 41 -34 75 -75 75s-75 -34 -75 -75v-3c-1 -13 3 -26 12 -39l164 -248
c16 -21 24 -45 24 -71c0 -35 -12 -64 -37 -89c-24 -24 -53 -36 -88 -36s-64 12 -89 36c-24 25 -36 54 -36 89z" />
    <glyph glyph-name="afii10103" unicode="&#x456;" horiz-adv-x="213" 
d="M131 100h-50v600h50v-600z" />
    <glyph glyph-name="afii10104" unicode="&#x457;" horiz-adv-x="213" 
d="M131 100h-50v600h50v-600zM12 806c-24 24 15 63 37 37c26 -22 -13 -61 -37 -37zM162 806c-24 24 15 63 37 37c26 -22 -13 -61 -37 -37z" />
    <glyph glyph-name="afii10105" unicode="&#x458;" horiz-adv-x="200" 
d="M0 -54h-21v47h21c41 0 75 34 75 75v632h50v-629c0 -35 -12 -64 -37 -88c-24 -25 -53 -37 -88 -37z" />
    <glyph glyph-name="afii10106" unicode="&#x459;" horiz-adv-x="625" 
d="M35 100h-14v47h14c41 0 75 34 75 75v478h250v-350h75c35 0 64 -12 88 -37c25 -24 37 -53 37 -88s-12 -64 -37 -89c-24 -24 -53 -36 -88 -36h-125v553h-150v-428c0 -35 -12 -64 -37 -89c-24 -24 -53 -36 -88 -36zM435 303h-75v-156h75c41 0 75 34 75 75v6
c0 41 -34 75 -75 75z" />
    <glyph glyph-name="afii10107" unicode="&#x45a;" horiz-adv-x="590" 
d="M400 100h-125v203h-150v-203h-50v600h50v-350h150v350h50v-350h75c35 0 64 -12 88 -37c25 -24 37 -53 37 -88s-12 -64 -37 -89c-24 -24 -53 -36 -88 -36zM400 303h-75v-156h75c41 0 75 34 75 75v6c0 41 -34 75 -75 75z" />
    <glyph glyph-name="afii10108" unicode="&#x45b;" horiz-adv-x="451" 
d="M126 653h-90v47h229v-47h-89v-174c23 17 48 25 75 25c35 0 64 -12 88 -37c25 -24 37 -53 37 -88v-279h-50v282c0 41 -34 75 -75 75c-40 0 -74 -33 -75 -72v-285h-50v553z" />
    <glyph glyph-name="afii10109" unicode="&#x45c;" 
d="M125 100h-50v600h50v-297l149 297h55l-122 -241l122 -359h-52l-101 296l-51 -100v-196zM287 831l-162 -51l-13 36l161 57z" />
    <glyph glyph-name="afii10110" unicode="&#x45e;" horiz-adv-x="369" 
d="M78 875v14h41v-14c0 -32 28 -56 71 -56s71 24 71 56v14h41v-14c0 -56 -39 -97 -112 -97s-112 41 -112 97zM92 100h-38v50h38c17 0 35 13 39 29l33 120l-108 401h48l86 -324l87 324h48l-146 -533c-11 -36 -48 -67 -87 -67z" />
    <glyph glyph-name="afii10193" unicode="&#x45f;" 
d="M225 0h-50v100h-100v600h50v-553h150v553h50v-600h-100v-100z" />
    <glyph glyph-name="afii10146" unicode="&#x462;" horiz-adv-x="600" 
d="M175 753h-139v47h329v-47h-140v-403h125c49 0 90 -17 124 -51s51 -75 51 -124s-17 -90 -51 -124s-75 -51 -124 -51h-175v753zM350 303h-125v-256h125c35 0 64 12 88 36c25 25 37 54 37 89v6c0 35 -12 64 -37 88c-24 25 -53 37 -88 37z" />
    <glyph glyph-name="afii10194" unicode="&#x463;" horiz-adv-x="441" 
d="M126 653h-90v47h229v-47h-89v-303h75c35 0 64 -12 88 -37c25 -24 37 -53 37 -88s-12 -64 -37 -89c-24 -24 -53 -36 -88 -36h-125v553zM251 303h-75v-156h75c41 0 75 34 75 75v6c0 41 -34 75 -75 75z" />
    <glyph glyph-name="afii10147" unicode="&#x472;" horiz-adv-x="500" 
d="M75 171v458c0 49 17 90 51 124s75 51 124 51s90 -17 124 -51s51 -75 51 -124v-458c0 -49 -17 -90 -51 -124s-75 -51 -124 -51s-90 17 -124 51s-51 75 -51 124zM179 317l152 -38c2 -1 5 -1 10 -1c9 0 16 1 21 4l13 6v344c0 35 -12 64 -37 88c-24 25 -53 37 -88 37
s-64 -12 -89 -37c-24 -24 -36 -53 -36 -88v-319c12 3 25 5 38 5c7 0 13 0 16 -1zM125 260v-92c0 -35 12 -64 36 -89c25 -24 54 -36 89 -36s64 12 88 36c25 25 37 54 37 89v68c-12 -3 -24 -5 -36 -5c-9 0 -15 1 -18 2l-152 38c-2 1 -5 1 -10 1c-7 0 -19 -4 -34 -12z" />
    <glyph glyph-name="afii10195" unicode="&#x473;" 
d="M75 221v358c0 35 12 64 36 88c25 25 54 37 89 37s64 -12 88 -37c25 -24 37 -53 37 -88v-358c0 -35 -12 -64 -37 -89c-24 -24 -53 -36 -88 -36s-64 12 -89 36c-24 25 -36 54 -36 89zM182 360l56 -28c2 -1 6 -2 12 -2c5 0 9 1 12 2l13 6v244c0 41 -34 75 -75 75
s-75 -34 -75 -75v-219c7 2 16 3 26 3c11 0 22 -2 31 -6zM125 310v-92c0 -41 34 -75 75 -75s75 34 75 75v68c-7 -2 -15 -3 -24 -3c-13 0 -24 2 -33 7l-56 28c-4 1 -7 2 -10 2c-7 0 -11 -1 -14 -3z" />
    <glyph glyph-name="afii10148" unicode="&#x474;" horiz-adv-x="491" 
d="M271 0h-50l-165 800h50l140 -668l139 668h51z" />
    <glyph glyph-name="afii10196" unicode="&#x475;" horiz-adv-x="391" 
d="M220 100h-50l-114 600h47l92 -488l93 488h47z" />
    <glyph glyph-name="afii10050" unicode="&#x490;" horiz-adv-x="415" 
d="M75 800h261v125h50v-172h-261v-753h-50v800z" />
    <glyph glyph-name="afii10098" unicode="&#x491;" horiz-adv-x="329" 
d="M75 700h175v100h50v-147h-175v-553h-50v600z" />
    <glyph glyph-name="afii10846" unicode="&#x4d9;" 
d="M275 376v206c0 41 -34 75 -75 75s-75 -34 -75 -75v-53h-50v50c0 35 12 64 36 88c25 25 54 37 89 37s64 -12 88 -37c25 -24 37 -53 37 -88v-358c0 -35 -12 -64 -37 -89c-24 -24 -53 -36 -88 -36s-64 12 -89 36c-24 25 -36 54 -36 89v155h200zM275 218v111h-150v-111
c0 -41 34 -75 75 -75s75 34 75 75z" />
    <glyph glyph-name="Wgrave" unicode="&#x1e80;" horiz-adv-x="550" 
d="M125 0h-50v800h50v-704l125 208h50l125 -208v704h50v-800h-50l-150 248zM177 973l161 -57l-13 -36l-162 51z" />
    <glyph glyph-name="wgrave" unicode="&#x1e81;" horiz-adv-x="450" 
d="M75 700h50v-495l78 145h44l78 -145v495h50v-600h-50l-100 189l-100 -189h-50v600zM125 873l163 -57l-13 -36l-162 51z" />
    <glyph glyph-name="Wacute" unicode="&#x1e82;" horiz-adv-x="550" 
d="M125 0h-50v800h50v-704l125 208h50l125 -208v704h50v-800h-50l-150 248zM387 931l-162 -51l-13 36l161 57z" />
    <glyph glyph-name="wacute" unicode="&#x1e83;" horiz-adv-x="450" 
d="M75 700h50v-495l78 145h44l78 -145v495h50v-600h-50l-100 189l-100 -189h-50v600zM337 831l-162 -51l-13 36l161 57z" />
    <glyph glyph-name="Wdieresis" unicode="&#x1e84;" horiz-adv-x="550" 
d="M125 0h-50v800h50v-704l125 208h50l125 -208v704h50v-800h-50l-150 248zM341 906c-24 24 15 63 37 37c26 -22 -13 -61 -37 -37zM171 906c-24 24 15 63 37 37c26 -22 -13 -61 -37 -37z" />
    <glyph glyph-name="wdieresis" unicode="&#x1e85;" horiz-adv-x="450" 
d="M75 700h50v-495l78 145h44l78 -145v495h50v-600h-50l-100 189l-100 -189h-50v600zM131 806c-24 24 15 63 37 37c26 -22 -13 -61 -37 -37zM281 806c-24 24 15 63 37 37c26 -22 -13 -61 -37 -37z" />
    <glyph glyph-name="Ygrave" unicode="&#x1ef2;" horiz-adv-x="470" 
d="M260 0h-50v251l-154 549h52l127 -460l127 460h52l-154 -549v-251zM122 973l161 -57l-13 -36l-162 51z" />
    <glyph glyph-name="ygrave" unicode="&#x1ef3;" horiz-adv-x="381" 
d="M215 100h-50v196l-109 404h48l86 -324l87 324h48l-110 -404v-196zM78 873l161 -57l-13 -36l-162 51z" />
    <glyph glyph-name="figuredash" unicode="&#x2012;" horiz-adv-x="350" 
d="M79 318h-47v84h239v37h47v-84h-239v-37z" />
    <glyph glyph-name="endash" unicode="&#x2013;" horiz-adv-x="350" 
d="M318 355h-286v47h286v-47z" />
    <glyph glyph-name="emdash" unicode="&#x2014;" horiz-adv-x="550" 
d="M518 355h-486v47h486v-47z" />
    <glyph glyph-name="quoteleft" unicode="&#x2018;" horiz-adv-x="200" 
d="M125 700v-147h-50v53c0 17 6 54 11 77l3 17h36z" />
    <glyph glyph-name="quoteright" unicode="&#x2019;" horiz-adv-x="200" 
d="M75 553v147h50v-54c0 -16 -6 -53 -11 -76l-3 -17h-36z" />
    <glyph glyph-name="quotesinglbase" unicode="&#x201a;" horiz-adv-x="200" 
d="M75 100v147h50v-53c0 -17 -6 -54 -11 -77l-3 -17h-36z" />
    <glyph glyph-name="quotedblleft" unicode="&#x201c;" horiz-adv-x="375" 
d="M300 700v-147h-50v53c0 17 6 54 10 77l4 17h36zM125 700v-147h-50v53c0 17 6 54 11 77l3 17h36z" />
    <glyph glyph-name="quotedblright" unicode="&#x201d;" horiz-adv-x="375" 
d="M75 553v147h50v-54c0 -16 -6 -53 -11 -76l-3 -17h-36zM250 553v147h50v-54c0 -16 -6 -53 -10 -76l-4 -17h-36z" />
    <glyph glyph-name="quotedblbase" unicode="&#x201e;" horiz-adv-x="375" 
d="M75 100v147h50v-53c0 -17 -6 -54 -11 -77l-3 -17h-36zM250 100v147h50v-53c0 -17 -6 -54 -10 -77l-4 -17h-36z" />
    <glyph glyph-name="dagger" unicode="&#x2020;" horiz-adv-x="334" 
d="M141 603h-105v47h105v136h50v-136h107v-47h-107v-603h-50v603z" />
    <glyph glyph-name="daggerdbl" unicode="&#x2021;" horiz-adv-x="334" 
d="M141 603h-105v47h105v136h50v-136h107v-47h-107v-406h107v-47h-107v-150h-50v150h-105v47h105v406z" />
    <glyph glyph-name="bullet" unicode="&#x2022;" horiz-adv-x="211" 
d="M106 350c-41 0 -40 61 0 61c39 0 39 -61 0 -61z" />
    <glyph glyph-name="ellipsis" unicode="&#x2026;" horiz-adv-x="610" 
d="M71 126c0 39 58 39 58 0c0 -37 -58 -37 -58 0zM266 126c0 39 58 39 58 0c0 -37 -58 -37 -58 0zM461 126c0 39 58 39 58 0c0 -37 -58 -37 -58 0z" />
    <glyph glyph-name="perthousand" unicode="&#x2030;" horiz-adv-x="1071" 
d="M75 471v108c0 35 12 64 36 88c25 25 54 37 89 37s64 -12 88 -37c25 -24 37 -53 37 -88v-108c0 -35 -12 -64 -37 -89c-24 -24 -53 -36 -88 -36s-64 12 -89 36c-24 25 -36 54 -36 89zM125 582v-114c0 -41 34 -75 75 -75s75 34 75 75v114c0 41 -34 75 -75 75
s-75 -34 -75 -75zM435 171v108c0 35 12 64 36 88c25 25 54 37 89 37s64 -12 88 -37c25 -24 37 -53 37 -88v-108c0 -35 -12 -64 -37 -89c-24 -24 -53 -36 -88 -36s-64 12 -89 36c-24 25 -36 54 -36 89zM485 282v-114c0 -41 34 -75 75 -75s75 34 75 75v114c0 41 -34 75 -75 75
s-75 -34 -75 -75zM558 682l-318 -636l-44 22l318 636zM746 171v108c0 35 12 64 36 88c25 25 54 37 89 37s64 -12 88 -37c25 -24 37 -53 37 -88v-108c0 -35 -12 -64 -37 -89c-24 -24 -53 -36 -88 -36s-64 12 -89 36c-24 25 -36 54 -36 89zM796 282v-114c0 -41 34 -75 75 -75
s75 34 75 75v114c0 41 -34 75 -75 75s-75 -34 -75 -75z" />
    <glyph glyph-name="guilsinglleft" unicode="&#x2039;" horiz-adv-x="345" 
d="M46 400l204 305l41 -28l-185 -277l185 -277l-41 -28z" />
    <glyph glyph-name="guilsinglright" unicode="&#x203a;" horiz-adv-x="345" 
d="M231 400l-185 277l42 28l203 -305l-203 -305l-42 28z" />
    <glyph glyph-name="exclamdbl" unicode="&#x203c;" horiz-adv-x="375" 
d="M71 126c0 39 58 39 58 0c0 -37 -58 -37 -58 0zM75 464v236h50v-236l-7 -235h-36c-5 138 -7 216 -7 235zM246 126c0 39 58 39 58 0c0 -37 -58 -37 -58 0zM250 464v236h50v-236l-7 -235h-36c-5 138 -7 216 -7 235z" />
    <glyph glyph-name="fraction" unicode="&#x2044;" horiz-adv-x="580" 
d="M512 789l-400 -800l-44 22l400 800z" />
    <glyph glyph-name="colonmonetary" unicode="&#x20a1;" horiz-adv-x="725" 
d="M175 173l-92 -184l-44 22l100 200c-43 55 -65 118 -65 189c0 84 30 156 89 215s131 89 215 89h7l54 107l44 -22l-46 -91c45 -9 84 -27 119 -52l83 165l44 -22l-323 -646h18c69 0 129 24 179 73l33 -34c-59 -57 -129 -86 -212 -86c-13 0 -27 1 -40 3l-55 -110l-44 22
l49 98c-43 13 -80 35 -113 64zM310 152l225 451c-37 28 -77 45 -120 51l-218 -435c32 -33 70 -55 113 -67zM124 400c0 -51 13 -98 40 -139l197 395c-67 -4 -124 -31 -169 -81c-45 -49 -68 -108 -68 -175z" />
    <glyph glyph-name="franc" unicode="&#x20a3;" horiz-adv-x="329" 
d="M75 170h-64v47h64v483h225v-47h-175v-284h150v-48h-150v-104h63v-47h-63v-70h-50v70z" />
    <glyph glyph-name="lira" unicode="&#x20a4;" horiz-adv-x="366" 
d="M86 464h-60v47h60v64c0 35 12 64 37 88c25 25 54 37 88 37h125v-47h-125c-41 0 -75 -34 -75 -75v-67h140v-47h-140v-117h140v-47h-140v-153h205v-47h-319v47h64v153h-60v47h60v117z" />
    <glyph glyph-name="Euro" unicode="&#x20ac;" horiz-adv-x="655" 
d="M81 466h-55v47h69c23 57 60 103 111 138s109 53 172 53c83 0 154 -29 212 -87l-33 -33c-50 49 -110 73 -179 73c-100 0 -185 -57 -228 -144h298v-47h-316c-5 -23 -8 -45 -8 -66c0 -20 2 -40 6 -59h246v-47h-230c41 -91 129 -151 232 -151c69 0 129 24 179 73l33 -34
c-59 -57 -129 -86 -212 -86c-65 0 -123 18 -175 55c-51 37 -88 84 -110 143h-67v47h53c-3 21 -5 41 -5 59c0 25 2 47 7 66z" />
    <glyph glyph-name="afii61352" unicode="&#x2116;" horiz-adv-x="925" 
d="M636 490c-24 25 -36 54 -36 89s12 64 36 88c25 25 54 37 89 37s64 -12 88 -37c25 -24 37 -53 37 -88s-12 -64 -37 -89c-24 -24 -53 -36 -88 -36s-64 12 -89 36zM650 582v-6c0 -41 34 -75 75 -75s75 34 75 75v6c0 41 -34 75 -75 75s-75 -34 -75 -75zM450 0h-50l-275 666
v-666h-50v800h50l275 -667v667h50v-800z" />
    <glyph glyph-name="trademark" unicode="&#x2122;" horiz-adv-x="659" 
d="M584 320h-50v374l-53 -99h-43l-54 100v-375h-50v480h50l75 -144l75 144h50v-480zM107 753h-71v47h190v-47h-69v-433h-50v433z" />
    <glyph glyph-name="estimated" unicode="&#x212e;" horiz-adv-x="500" 
d="M125 375v-107c0 -35 12 -64 36 -89c25 -24 54 -36 89 -36s64 12 88 36c25 25 37 54 37 89v28h50v-25c0 -49 -17 -90 -51 -124s-75 -51 -124 -51s-90 17 -124 51s-51 75 -51 124v258c0 49 17 90 51 124s75 51 124 51s90 -17 124 -51s51 -75 51 -124v-154h-300zM125 532
v-107h250v107c0 35 -12 64 -37 88c-24 25 -53 37 -88 37s-64 -12 -89 -37c-24 -24 -36 -53 -36 -88z" />
    <glyph glyph-name="product" unicode="&#x220f;" horiz-adv-x="500" 
d="M425 0h-50v753h-250v-753h-50v800h350v-800z" />
    <glyph glyph-name="summation" unicode="&#x2211;" horiz-adv-x="480" 
d="M415 0h-340v47l151 231l-147 475v47h332v-47h-280l140 -454v-48l-137 -204h281v-47z" />
    <glyph glyph-name="minus" unicode="&#x2212;" horiz-adv-x="464" 
d="M432 355h-400v47h400v-47z" />
    <glyph glyph-name="uni2215" unicode="&#x2215;" horiz-adv-x="580" 
d="M512 789l-400 -800l-44 22l400 800z" />
    <glyph glyph-name="infinity" unicode="&#x221e;" horiz-adv-x="800" 
d="M339 499l61 -68l61 68c29 37 67 55 114 55c43 0 79 -15 109 -45s45 -66 45 -109s-15 -79 -45 -109s-66 -45 -109 -45c-47 0 -85 18 -114 55l-61 67l-61 -67c-29 -37 -67 -55 -114 -55c-43 0 -79 15 -109 45s-45 66 -45 109s15 79 45 109s66 45 109 45
c47 0 85 -18 114 -55zM575 504c-37 0 -65 -15 -86 -46l-41 -58l41 -58c22 -31 51 -47 86 -46c57 0 104 47 104 104s-47 104 -104 104zM225 296c35 0 64 15 86 46l41 58l-41 58c-22 31 -51 47 -86 46c-57 0 -104 -47 -104 -104s47 -104 104 -104z" />
    <glyph glyph-name="integral" unicode="&#x222b;" horiz-adv-x="590" 
d="M520 750v-50h-50v53c0 41 -34 75 -75 75s-75 -34 -75 -75v-703c0 -35 -12 -64 -37 -88c-24 -25 -53 -37 -88 -37s-64 12 -89 37c-24 24 -36 53 -36 88v50h50v-53c0 -41 34 -75 75 -75s75 34 75 75v703c0 35 12 64 36 88c25 25 54 37 89 37s64 -12 88 -37
c25 -24 37 -53 37 -88z" />
    <glyph glyph-name="zero.onum" 
d="M75 221v358c0 35 12 64 36 88c25 25 54 37 89 37s64 -12 88 -37c25 -24 37 -53 37 -88v-358c0 -35 -12 -64 -37 -89c-24 -24 -53 -36 -88 -36s-64 12 -89 36c-24 25 -36 54 -36 89zM125 582v-364c0 -41 34 -75 75 -75s75 34 75 75v364c0 41 -34 75 -75 75
s-75 -34 -75 -75z" />
    <glyph glyph-name="one.onum" horiz-adv-x="304" 
d="M219 100h-50v553h-114v47h164v-600z" />
    <glyph glyph-name="two.onum" 
d="M325 100h-250v47l193 399c5 11 7 21 7 30v6c0 41 -34 75 -75 75s-75 -34 -75 -75v-49h-50v46c0 35 12 64 36 88c25 25 54 37 89 37s64 -12 88 -37c25 -24 37 -53 37 -88c0 -21 -6 -41 -17 -60l-181 -372h198v-47z" />
    <glyph glyph-name="three.onum" 
d="M259 653h-183v47h245v-47l-116 -152c33 -1 62 -14 85 -39c23 -24 35 -53 35 -86v-155c0 -35 -12 -64 -37 -89c-24 -24 -53 -36 -88 -36s-64 12 -89 36c-24 25 -36 54 -36 89v50h50v-53c0 -41 34 -75 75 -75s75 34 75 75v161c0 41 -34 75 -75 75h-57v47z" />
    <glyph glyph-name="four.onum" horiz-adv-x="373" 
d="M248 296h-200v48l200 356h50v-600h-50v196zM248 598l-143 -254h143v254z" />
    <glyph glyph-name="five.onum" 
d="M275 218v161c0 41 -34 75 -75 75h-121v246h242v-47h-192v-152h71c35 0 64 -12 88 -37c25 -24 37 -53 37 -88v-155c0 -35 -12 -64 -37 -89c-24 -24 -53 -36 -88 -36s-64 12 -89 36c-24 25 -36 54 -36 89v50h50v-53c0 -41 34 -75 75 -75s75 34 75 75z" />
    <glyph glyph-name="six.onum" 
d="M125 582v-106c23 17 48 25 75 25c35 0 64 -12 88 -37c25 -24 37 -53 37 -88v-155c0 -35 -12 -64 -37 -89c-24 -24 -53 -36 -88 -36s-64 12 -89 36c-24 25 -36 54 -36 89v358c0 35 12 64 36 88c25 25 54 37 89 37s64 -12 88 -37c25 -24 37 -53 37 -88v-40h-50v43
c0 41 -34 75 -75 75s-75 -34 -75 -75zM275 218v161c0 41 -34 75 -75 75c-40 0 -74 -33 -75 -72v-164c0 -41 34 -75 75 -75s75 34 75 75z" />
    <glyph glyph-name="seven.onum" horiz-adv-x="329" 
d="M218 653h-193v47h244v-47l-123 -553h-52z" />
    <glyph glyph-name="eight.onum" horiz-adv-x="390" 
d="M70 221c0 26 8 50 24 71l71 108l-68 105c-18 21 -27 46 -27 74c0 35 12 64 36 88c25 25 54 37 89 37s64 -12 88 -37c25 -24 37 -53 37 -88c0 -28 -9 -53 -27 -74l-69 -105l72 -108c16 -21 24 -45 24 -71c0 -35 -12 -64 -37 -89c-24 -24 -53 -36 -88 -36s-64 12 -89 36
c-24 25 -36 54 -36 89zM270 218v3c0 15 -3 27 -10 36l-65 98l-65 -98c-7 -9 -10 -21 -10 -36v-3c0 -41 34 -75 75 -75s75 34 75 75zM120 582v-3c-1 -13 3 -26 12 -39l63 -95l63 95c8 13 12 26 12 39v3c0 41 -34 75 -75 75s-75 -34 -75 -75z" />
    <glyph glyph-name="nine.onum" 
d="M275 218v106c-22 -17 -47 -25 -75 -25c-35 0 -64 12 -89 36c-24 25 -36 54 -36 89v155c0 35 12 64 36 88c25 25 54 37 89 37s64 -12 88 -37c25 -24 37 -53 37 -88v-358c0 -35 -12 -64 -37 -89c-24 -24 -53 -36 -88 -36s-64 12 -89 36c-24 25 -36 54 -36 89v40h50v-43
c0 -41 34 -75 75 -75s75 34 75 75zM125 582v-161c0 -41 34 -75 75 -75s75 34 75 75v161c0 41 -34 75 -75 75s-75 -34 -75 -75z" />
    <glyph glyph-name="zero.lnum" horiz-adv-x="500" 
d="M75 171v458c0 49 17 90 51 124s75 51 124 51s90 -17 124 -51s51 -75 51 -124v-458c0 -49 -17 -90 -51 -124s-75 -51 -124 -51s-90 17 -124 51s-51 75 -51 124zM125 632v-464c0 -35 12 -64 36 -89c25 -24 54 -36 89 -36s64 12 88 36c25 25 37 54 37 89v464
c0 35 -12 64 -37 88c-24 25 -53 37 -88 37s-64 -12 -89 -37c-24 -24 -36 -53 -36 -88z" />
    <glyph glyph-name="one.lnum" horiz-adv-x="315" 
d="M230 0h-50v753h-125v47h175v-800z" />
    <glyph glyph-name="two.lnum" horiz-adv-x="500" 
d="M425 0h-350v47l285 520c10 19 15 38 15 59v6c0 35 -12 64 -37 88c-24 25 -53 37 -88 37s-64 -12 -89 -37c-24 -24 -36 -53 -36 -88v-39h-50v36c0 49 17 90 51 124s75 51 124 51s90 -17 124 -51s51 -75 51 -124c0 -32 -8 -62 -25 -89l-270 -493h295v-47z" />
    <glyph glyph-name="three.lnum" horiz-adv-x="500" 
d="M375 557v75c0 35 -12 64 -37 88c-24 25 -53 37 -88 37s-64 -12 -89 -37c-24 -24 -36 -53 -36 -88v-39h-50v36c0 49 17 90 51 124s75 51 124 51s90 -17 124 -51s51 -75 51 -124v-69c0 -64 -34 -121 -87 -152c53 -31 87 -87 87 -151v-86c0 -49 -17 -90 -51 -124
s-75 -51 -124 -51s-90 17 -124 51s-51 75 -51 124v36h50v-39c0 -35 12 -64 36 -89c25 -24 54 -36 89 -36s64 12 88 36c25 25 37 54 37 89v92c0 33 -12 62 -35 86c-23 25 -52 38 -85 39h-76v47h71c35 0 64 12 88 36c25 25 37 54 37 89z" />
    <glyph glyph-name="four.lnum" horiz-adv-x="491" 
d="M75 250v47l123 503h52l-124 -503h240v503h50v-800h-50v250h-291z" />
    <glyph glyph-name="five.lnum" horiz-adv-x="500" 
d="M375 168v145c0 35 -12 64 -37 88c-24 25 -53 37 -88 37h-171v362h332v-47h-282v-268h121c49 0 90 -17 124 -51s51 -75 51 -124v-139c0 -49 -17 -90 -51 -124s-75 -51 -124 -51s-90 17 -124 51s-51 75 -51 124v36h50v-39c0 -35 12 -64 36 -89c25 -24 54 -36 89 -36
s64 12 88 36c25 25 37 54 37 89z" />
    <glyph glyph-name="six.lnum" horiz-adv-x="500" 
d="M250 489c49 0 90 -17 124 -51s51 -75 51 -124v-143c0 -49 -17 -90 -51 -124s-75 -51 -124 -51s-90 17 -124 51s-51 75 -51 124v458c0 49 17 90 51 124s75 51 124 51s90 -17 124 -51s51 -75 51 -124v-36h-50v39c0 35 -12 64 -37 88c-24 25 -53 37 -88 37s-64 -12 -89 -37
c-24 -24 -36 -53 -36 -88v-195c33 35 75 52 125 52zM125 322v-154c0 -35 12 -64 36 -89c25 -24 54 -36 89 -36s64 12 88 36c25 25 37 54 37 89v149c0 34 -12 63 -37 88c-24 25 -53 37 -88 37c-34 0 -63 -12 -87 -36c-24 -23 -37 -51 -38 -84z" />
    <glyph glyph-name="seven.lnum" horiz-adv-x="448" 
d="M315 753h-286v47h338v-47l-186 -753h-50z" />
    <glyph glyph-name="eight.lnum" horiz-adv-x="500" 
d="M75 171v89c0 64 34 120 87 151c-53 31 -87 88 -87 152v66c0 49 17 90 51 124s75 51 124 51s90 -17 124 -51s51 -75 51 -124v-66c0 -64 -34 -121 -87 -152c53 -31 87 -87 87 -151v-89c0 -49 -17 -90 -51 -124s-75 -51 -124 -51s-90 17 -124 51s-51 75 -51 124zM125 263
v-95c0 -35 12 -64 36 -89c25 -24 54 -36 89 -36s64 12 88 36c25 25 37 54 37 89v95c0 33 -12 62 -35 86c-23 25 -52 38 -85 39h-10c-33 -1 -62 -14 -85 -39c-23 -24 -35 -53 -35 -86zM125 632v-72c0 -35 12 -64 36 -89c25 -24 54 -36 89 -36s64 12 88 36c25 25 37 54 37 89
v72c0 35 -12 64 -37 88c-24 25 -53 37 -88 37s-64 -12 -89 -37c-24 -24 -36 -53 -36 -88z" />
    <glyph glyph-name="nine.lnum" horiz-adv-x="500" 
d="M375 168v195c-35 -35 -76 -52 -125 -52s-90 17 -124 51s-51 75 -51 124v143c0 49 17 90 51 124s75 51 124 51s90 -17 124 -51s51 -75 51 -124v-458c0 -49 -17 -90 -51 -124s-75 -51 -124 -51s-90 17 -124 51s-51 75 -51 124v36h50v-39c0 -35 12 -64 36 -89
c25 -24 54 -36 89 -36s64 12 88 36c25 25 37 54 37 89zM375 483v149c0 35 -12 64 -37 88c-24 25 -53 37 -88 37s-64 -12 -89 -37c-24 -24 -36 -53 -36 -88v-149c0 -34 12 -63 36 -88c25 -25 54 -37 89 -37s64 12 88 37c25 25 37 54 37 88z" />
    <glyph glyph-name="zero.tnum" 
d="M75 221v358c0 35 12 64 36 88c25 25 54 37 89 37s64 -12 88 -37c25 -24 37 -53 37 -88v-358c0 -35 -12 -64 -37 -89c-24 -24 -53 -36 -88 -36s-64 12 -89 36c-24 25 -36 54 -36 89zM125 582v-364c0 -41 34 -75 75 -75s75 34 75 75v364c0 41 -34 75 -75 75
s-75 -34 -75 -75z" />
    <glyph glyph-name="one.tnum" horiz-adv-x="304" 
d="M219 100h-50v553h-114v47h164v-600z" />
    <glyph glyph-name="two.tnum" 
d="M325 100h-250v47l193 399c5 11 7 21 7 30v6c0 41 -34 75 -75 75s-75 -34 -75 -75v-49h-50v46c0 35 12 64 36 88c25 25 54 37 89 37s64 -12 88 -37c25 -24 37 -53 37 -88c0 -21 -6 -41 -17 -60l-181 -372h198v-47z" />
    <glyph glyph-name="three.tnum" 
d="M275 499v83c0 41 -34 75 -75 75s-75 -34 -75 -75v-46h-50v43c0 35 12 64 36 88c25 25 54 37 89 37s64 -12 88 -37c25 -24 37 -53 37 -88v-78c0 -43 -17 -76 -52 -101c35 -25 52 -58 52 -101v-78c0 -35 -12 -64 -37 -89c-24 -24 -53 -36 -88 -36s-64 12 -89 36
c-24 25 -36 54 -36 89v43h50v-46c0 -41 34 -75 75 -75s75 34 75 75v83c0 41 -34 75 -75 75h-50v48h50c41 0 75 34 75 75z" />
    <glyph glyph-name="four.tnum" horiz-adv-x="373" 
d="M48 296v48l69 356h50l-69 -356h150v356h50v-600h-50v196h-200z" />
    <glyph glyph-name="five.tnum" 
d="M275 218v130c0 41 -34 75 -75 75h-121v277h242v-47h-192v-183h71c35 0 64 -12 88 -37c25 -24 37 -53 37 -88v-124c0 -35 -12 -64 -37 -89c-24 -24 -53 -36 -88 -36s-64 12 -89 36c-24 25 -36 54 -36 89v43h50v-46c0 -41 34 -75 75 -75s75 34 75 75z" />
    <glyph glyph-name="six.tnum" 
d="M125 582v-104c23 17 48 25 75 25c35 0 64 -12 88 -37c25 -24 37 -53 37 -88v-157c0 -35 -12 -64 -37 -89c-24 -24 -53 -36 -88 -36s-64 12 -89 36c-24 25 -36 54 -36 89v358c0 35 12 64 36 88c25 25 54 37 89 37s64 -12 88 -37c25 -24 37 -53 37 -88v-40h-50v43
c0 41 -34 75 -75 75s-75 -34 -75 -75zM275 218v163c0 41 -34 75 -75 75c-40 0 -74 -33 -75 -72v-166c0 -41 34 -75 75 -75s75 34 75 75z" />
    <glyph glyph-name="seven.tnum" horiz-adv-x="329" 
d="M218 653h-193v47h244v-47l-123 -553h-52z" />
    <glyph glyph-name="eight.tnum" 
d="M75 511v68c0 35 12 64 36 88c25 25 54 37 89 37s64 -12 88 -37c25 -24 37 -53 37 -88v-68c0 -43 -17 -76 -52 -101c35 -25 52 -58 52 -101v-88c0 -35 -12 -64 -37 -89c-24 -24 -53 -36 -88 -36s-64 12 -89 36c-24 25 -36 54 -36 89v88c0 42 17 76 51 101
c-34 25 -51 59 -51 101zM125 311v-93c0 -41 34 -75 75 -75s75 34 75 75v93c0 41 -34 75 -75 75h-5c-39 -3 -70 -35 -70 -75zM125 582v-73c0 -41 34 -75 75 -75s75 34 75 75v73c0 41 -34 75 -75 75s-75 -34 -75 -75z" />
    <glyph glyph-name="nine.tnum" 
d="M275 218v104c-22 -17 -47 -25 -75 -25c-35 0 -64 12 -89 37c-24 25 -36 54 -36 88v157c0 35 12 64 36 88c25 25 54 37 89 37s64 -12 88 -37c25 -24 37 -53 37 -88v-358c0 -35 -12 -64 -37 -89c-24 -24 -53 -36 -88 -36s-64 12 -89 36c-24 25 -36 54 -36 89v40h50v-43
c0 -41 34 -75 75 -75s75 34 75 75zM125 582v-162c0 -41 34 -75 75 -75c40 0 74 31 75 72v165c0 41 -34 75 -75 75s-75 -34 -75 -75z" />
    <glyph glyph-name="Dieresis" 
d="M96 806c-24 24 15 63 37 37c26 -22 -13 -61 -37 -37zM266 806c-24 24 15 63 37 37c26 -22 -13 -61 -37 -37z" />
    <glyph glyph-name="Ring" horiz-adv-x="330" 
d="M96 756c-37 39 -37 100 0 137c39 39 100 39 137 0c39 -37 39 -98 0 -137c-37 -37 -98 -37 -137 0zM125 864c-21 -21 -21 -56 0 -79c23 -21 58 -21 79 0c23 23 23 58 0 79c-21 23 -56 23 -79 0z" />
    <glyph glyph-name="Macron" horiz-adv-x="200" 
d="M225 803h-250v41h250v-41z" />
    <glyph glyph-name="Breve" horiz-adv-x="330" 
d="M165 778v41c43 0 71 24 71 56v14h41v-14c0 -56 -39 -97 -112 -97zM165 819v-41c-73 0 -112 41 -112 97v14h41v-14c0 -32 28 -56 71 -56z" />
    <glyph glyph-name="Dotaccent" horiz-adv-x="213" 
d="M79 804c-25 28 16 69 41 41c28 -25 -13 -66 -41 -41z" />
    <glyph glyph-name="ampersandsmall" horiz-adv-x="543" 
d="M75 171c0 64 34 120 87 151c-53 31 -87 87 -87 152v155c0 49 17 90 51 124s75 51 124 51s90 -17 124 -51s51 -75 51 -124v-36h-50v39c0 35 -12 64 -37 88c-24 25 -53 37 -88 37s-64 -12 -89 -37c-24 -24 -36 -53 -36 -88v-161c0 -35 12 -64 36 -89c25 -24 54 -36 89 -36
h257v-47h-82v-128c0 -49 -17 -90 -51 -124s-75 -51 -124 -51s-90 17 -124 51s-51 75 -51 124zM125 174v-6c0 -35 12 -64 36 -89c25 -24 54 -36 89 -36s64 12 88 36c25 25 37 54 37 89v131h-130c-33 -1 -62 -14 -85 -39c-23 -24 -35 -53 -35 -86z" />
    <glyph glyph-name="exclamsmall" horiz-adv-x="200" 
d="M71 26c0 39 58 39 58 0c0 -37 -58 -37 -58 0zM75 464v336h50v-336l-7 -335h-36c-5 205 -7 316 -7 335z" />
    <glyph glyph-name="exclamdownsmall" horiz-adv-x="200" 
d="M71 774c0 37 58 37 58 0c0 -39 -58 -39 -58 0zM125 0h-50v336l7 335h36c5 -205 7 -316 7 -335v-336z" />
    <glyph glyph-name="questionsmall" horiz-adv-x="500" 
d="M125 633v-40h-50v37c0 49 17 90 51 124s75 51 124 51s90 -17 124 -51s51 -75 51 -124v-80c0 -36 -12 -72 -36 -108l-92 -140c-15 -22 -22 -46 -22 -73v-25l-6 -75h-38c-4 43 -6 68 -6 75v25c0 37 12 73 36 108l92 140c13 21 21 45 22 73v83c0 35 -12 64 -37 88
c-24 25 -53 37 -88 37s-64 -12 -89 -37c-24 -24 -36 -53 -36 -88zM221 26c0 39 58 39 58 0c0 -37 -58 -37 -58 0z" />
    <glyph glyph-name="questiondownsmall" horiz-adv-x="500" 
d="M375 169v40h50v-37c0 -49 -17 -90 -51 -124s-75 -51 -124 -51s-90 17 -124 51s-51 75 -51 124v80c0 37 12 73 36 108l92 140c15 25 22 50 22 74v25l6 75h38c4 -43 6 -68 6 -75v-25c0 -33 -16 -81 -36 -108l-92 -140c-15 -25 -22 -50 -22 -74v-83c0 -35 12 -64 36 -89
c25 -24 54 -36 89 -36s64 12 88 36c25 25 37 54 37 89zM279 776c0 -39 -58 -39 -58 0c0 37 58 37 58 0z" />
    <glyph glyph-name="Tilde" horiz-adv-x="200" 
d="M-1 800l-6 -2l-17 35l5 3c23 13 47 20 73 20c11 0 27 -4 46 -12s34 -12 45 -12c29 0 56 14 56 15l5 3l18 -36l-5 -2c-24 -14 -49 -21 -76 -21c-11 0 -26 4 -45 12s-33 12 -43 12c-29 0 -56 -14 -56 -15z" />
    <glyph glyph-name="Hungarumlaut" horiz-adv-x="350" 
d="M168 838l-70 -57l-26 30l68 61zM307 838l-70 -57l-26 30l68 61z" />
    <glyph glyph-name="Ogonek" horiz-adv-x="200" 
d="M78 100l15 14l42 -14c-39 -40 -59 -70 -59 -91c0 -17 8 -25 24 -25c11 0 21 8 26 15l3 5l33 -18c-15 -25 -34 -37 -59 -37c-45 0 -68 21 -68 63c0 29 24 68 43 88z" />
    <glyph glyph-name="Grave" horiz-adv-x="250" 
d="M52 873l161 -57l-13 -36l-162 51z" />
    <glyph glyph-name="idotaccent" horiz-adv-x="213" 
d="M85 804c-25 28 16 69 41 41c28 -25 -13 -66 -41 -41zM131 100h-50v600h50v-600z" />
    </font>
</defs>
</svg>
